<?xml version="1.0" standalone="no"?>
<!DOCTYPE svg PUBLIC "-//W3C//DTD SVG 1.1//EN" "http://www.w3.org/Graphics/SVG/1.1/DTD/svg11.dtd" >
<svg>
<metadata>
Created by FontForge 20090914 at Fri Feb  7 08:09:03 2014
 By www-data
Copyright (c) 2011-12 by vernon adams. All rights reserved.
</metadata>
<defs>
<font id="Oswald-Bold" horiz-adv-x="1248" >
  <font-face 
    font-family="Oswald"
    font-weight="700"
    font-stretch="normal"
    units-per-em="2048"
    panose-1="2 0 8 3 0 0 0 0 0 0"
    ascent="1638"
    descent="-410"
    x-height="1305"
    cap-height="1800"
    bbox="-187 -704.002 2075 2415"
    underline-thickness="102"
    underline-position="-205"
    unicode-range="U+000D-U+FB04"
  />
<missing-glyph horiz-adv-x="748" 
d="M68 0v1365h544v-1365h-544zM136 68h408v1229h-408v-1229z" />
    <glyph glyph-name="uniFB00" unicode="ff" horiz-adv-x="1279" 
d="M141 0l0.00390625 1080h-76v225h76c0 3.33301 0.166992 8.16602 0.5 14.499s0.5 11.166 0.5 14.499c1.33301 45.333 4.16602 85.5 8.49902 120.5s12.833 70.833 25.5 107.5s29.167 67 49.5 91s48 43.667 83 59s76.167 23 123.5 23c28 0 59.667 -1.16699 95 -3.5
s63.666 -4.83301 84.999 -7.5l32 -3v-252c-46 4 -75.333 6 -88 6c-28 0 -48 -7.83301 -60 -23.5s-18 -44.167 -18 -85.5v-61h282c0 3.33301 0.166992 8.16602 0.5 14.499s0.5 11.166 0.5 14.499c1.33301 45.333 4.16602 85.5 8.49902 120.5s12.833 70.833 25.5 107.5
s29.167 67 49.5 91s48 43.667 83 59s76.167 23 123.5 23c28 0 59.667 -1.16699 95 -3.5s63.666 -4.83301 84.999 -7.5l32 -3v-252c-46 4 -75.333 6 -88 6c-28 0 -48 -7.83301 -60 -23.5s-18 -44.167 -18 -85.5v-61h163v-225h-163v-1080h-337v1080h-282v-1080h-337z" />
    <glyph glyph-name="uniFB01" unicode="fi" horiz-adv-x="1198" 
d="M765 1419v315h337v-315h-337zM141 0l0.00195312 1080h-76v225h76c0 3.33301 0.166992 8.16602 0.5 14.499s0.5 11.166 0.5 14.499c1.33301 45.333 4.16602 85.5 8.49902 120.5s12.833 70.833 25.5 107.5s29.167 67 49.5 91s48 43.667 83 59s76.167 23 123.5 23
c28 0 59.667 -1.16699 95 -3.5s63.666 -4.83301 84.999 -7.5l32 -3v-252c-46 4 -75.333 6 -88 6c-28 0 -48 -7.83301 -60 -23.5s-18 -44.167 -18 -85.5v-61h624v-1305h-337v1080h-287v-1080h-337z" />
    <glyph glyph-name="uniFB02" unicode="fl" horiz-adv-x="1189" 
d="M756 0l0.00292969 1470c-96.667 3.33301 -163.334 5 -200.001 5c-28 0 -48 -7.83301 -60 -23.5s-18 -44.167 -18 -85.5v-61h163v-225h-163v-1080h-337v1080h-76v225h76c0 3.33301 0.166992 8.16602 0.5 14.499s0.5 11.166 0.5 14.499
c1.33301 45.333 4.66602 85.5 9.99902 120.5s15.166 70.833 29.499 107.5s33.166 67 56.499 91s54.833 43.667 94.5 59s86.167 23 139.5 23c44 0 94.833 -1.16699 152.5 -3.5s133.834 -6 228.501 -11s174.667 -8.83301 240 -11.5v-1709h-337z" />
    <glyph glyph-name="uniFB03" unicode="ffi" horiz-adv-x="1840" 
d="M1407 1419v315h337v-315h-337zM141 0l0.00390625 1080h-76v225h76c0 3.33301 0.166992 8.16602 0.5 14.499s0.5 11.166 0.5 14.499c1.33301 45.333 4.16602 85.5 8.49902 120.5s12.833 70.833 25.5 107.5s29.167 67 49.5 91s48 43.667 83 59s76.167 23 123.5 23
c28 0 59.667 -1.16699 95 -3.5s63.666 -4.83301 84.999 -7.5l32 -3v-252c-46 4 -75.333 6 -88 6c-28 0 -48 -7.83301 -60 -23.5s-18 -44.167 -18 -85.5v-61h282c0 3.33301 0.166992 8.16602 0.5 14.499s0.5 11.166 0.5 14.499c1.33301 45.333 4.16602 85.5 8.49902 120.5
s12.833 70.833 25.5 107.5s29.167 67 49.5 91s48 43.667 83 59s76.167 23 123.5 23c28 0 59.667 -1.16699 95 -3.5s63.666 -4.83301 84.999 -7.5l32 -3v-252c-46 4 -75.333 6 -88 6c-28 0 -48 -7.83301 -60 -23.5s-18 -44.167 -18 -85.5v-61h647v-1305h-337v1080h-310v-1080
h-337v1080h-282v-1080h-337z" />
    <glyph glyph-name="uniFB04" unicode="ffl" horiz-adv-x="1849" 
d="M1416 0l0.00292969 1471c-15.333 0 -40.333 0.666992 -75 2s-56.334 2 -65.001 2c-49.333 0 -84.666 -7.83301 -105.999 -23.5s-32 -44.167 -32 -85.5v-61h163v-225h-163v-1080h-337v1080h-323v-1080h-337v1080h-76v225h76c0 3.33301 0.166992 8.16602 0.5 14.499
s0.5 11.166 0.5 14.499c1.33301 45.333 4.16602 85.5 8.49902 120.5s12.833 70.833 25.5 107.5s29.167 67 49.5 91s48 43.667 83 59s76.167 23 123.5 23c28 0 59.667 -1.16699 95 -3.5s63.666 -4.83301 84.999 -7.5l32 -3v-252c-46 4 -75.333 6 -88 6
c-28 0 -48 -7.83301 -60 -23.5s-18 -44.167 -18 -85.5v-61h323c0 3.33301 0.166992 8.16602 0.5 14.499s0.5 11.166 0.5 14.499c1.33301 45.333 4.83301 85.5 10.5 120.5s16.167 70.833 31.5 107.5s35.333 67 60 91s58 43.667 100 59s91.333 23 148 23
c101.333 0 301.666 -12.333 600.999 -37v-1698h-337z" />
    <glyph glyph-name=".notdef" horiz-adv-x="748" 
d="M68 0v1365h544v-1365h-544zM136 68h408v1229h-408v-1229z" />
    <glyph glyph-name="uni000D" unicode="&#xd;" horiz-adv-x="0" 
 />
    <glyph glyph-name="space" unicode=" " horiz-adv-x="410" 
 />
    <glyph glyph-name="exclam" unicode="!" horiz-adv-x="524" 
d="M95 0v317h323v-317h-323zM199 462l-104 1338h343l-123 -1338h-116z" />
    <glyph glyph-name="quotedbl" unicode="&#x22;" horiz-adv-x="758" 
d="M434 1202l-1 599h285l-102 -599h-182zM130 1202l-90 599h294l-1 -599h-203z" />
    <glyph glyph-name="numbersign" unicode="#" horiz-adv-x="1150" 
d="M485 871h142l16 114h-142zM153 0l88 616h-142v255h178l16 114h-194v255h231l80 561h209l-81 -561h142l80 561h209l-81 -561h136v-255h-173l-16 -114h189v-255h-226l-89 -616h-206l88 616h-143l-89 -616h-206z" />
    <glyph glyph-name="dollar" unicode="$" horiz-adv-x="1145" 
d="M529 -100l-0.00292969 171c-75.333 6.66699 -141.5 24 -198.5 52s-102.5 64.667 -136.5 110s-59.333 95.833 -76 151.5s-25 116.834 -25 183.501l364 69v-49c0 -22 0.666992 -41.833 2 -59.5s4.66602 -38.5 9.99902 -62.5s12.5 -43.833 21.5 -59.5
s22.5 -29.167 40.5 -40.5s39.333 -17 64 -17c68.667 0 103 41 103 123c0 16.667 -1.66699 32.5 -5 47.5s-9.66602 30 -18.999 45s-17.333 27.333 -24 37s-18.667 22.167 -36 37.5l-36.5 32.5c-7 6.33301 -22 18.333 -45 36l-43.5 33.5l-112 89l-84.5 69
c-21 18 -45.833 42.5 -74.5 73.5s-50.667 60.5 -66 88.5s-28.833 61.667 -40.5 101s-17.5 81 -17.5 125c0 129.333 39.333 233.166 118 311.499s184.334 123.5 317.001 135.5v197h96v-194c122 -6 224.167 -48.167 306.5 -126.5s123.5 -174.833 123.5 -289.5v-46l-373 -50
c2 36 3 60.667 3 74c0 108 -37.333 162 -112 162c-40.667 0 -71 -13 -91 -39s-30 -56.333 -30 -91c0 -48 12.833 -89.167 38.5 -123.5s63.5 -70.5 113.5 -108.5l123 -93c47.333 -35.333 85.333 -65.166 114 -89.499s58.334 -53.333 89.001 -87s54.167 -66.5 70.5 -98.5
s29.833 -69.333 40.5 -112s16 -89.334 16 -140.001c0 -115.333 -41.667 -210.833 -125 -286.5s-185.666 -116.5 -306.999 -122.5v-170h-96z" />
    <glyph glyph-name="percent" unicode="%" horiz-adv-x="2041" 
d="M634 0l577 1835h180l-578 -1835h-179zM1436 517l-0.000976562 -6.00098c0 -39.333 0.666992 -72.166 2 -98.499s4.33301 -53.5 9 -81.5s11.167 -50.167 19.5 -66.5s19.833 -29.833 34.5 -40.5s32.667 -16 54 -16c26 0 47.167 7.16699 63.5 21.5s28.333 36.833 36 67.5
s12.667 61.5 15 92.5s3.5 71.5 3.5 121.5v5c0 34 -0.333008 61.5 -1 82.5s-2.16699 44 -4.5 69s-6.16602 44.833 -11.499 59.5s-12.166 28.667 -20.499 42s-19.333 23 -33 29s-29.5 9 -47.5 9s-33.667 -3 -47 -9s-24.333 -15.5 -33 -28.5s-15.667 -27 -21 -42
s-9.33301 -34.667 -12 -59s-4.33398 -47.333 -5.00098 -69s-1 -49.167 -1 -82.5zM1170 510.999l-0.000976562 8.99902c0.666992 78 7.66699 146.333 21 205s34.666 110.334 63.999 155.001s69 78.5 119 101.5s110.333 34.5 181 34.5c70 0 130.167 -11.5 180.5 -34.5
s90.333 -56.667 120 -101s51.334 -96 65.001 -155s20.834 -127.5 21.501 -205.5v-9c0 -340.667 -129 -511 -387 -511c-256.667 0 -385 170.333 -385 511zM359.998 1306l-0.000976562 -10.999c0 -39.333 0.666992 -72.166 2 -98.499s4.33301 -53.5 9 -81.5
s11.167 -50.167 19.5 -66.5s19.833 -29.833 34.5 -40.5s32.667 -16 54 -16c26 0 47.167 7.16699 63.5 21.5s28.333 36.833 36 67.5s12.667 61.5 15 92.5s3.5 71.5 3.5 121.5v9c0 33.333 -0.333008 60.5 -1 81.5s-2.33398 43.667 -5.00098 68s-6.5 43.833 -11.5 58.5
s-11.833 28.667 -20.5 42s-19.667 22.833 -33 28.5s-29 8.5 -47 8.5c-21.333 0 -39.5 -4.66699 -54.5 -14s-26.667 -21.333 -35 -36s-14.666 -35.334 -18.999 -62.001s-7.16602 -52.334 -8.49902 -77.001s-2 -56.667 -2 -96zM93.9971 1295v6
c0 78.667 6.66699 147.5 20 206.5s34.666 111 63.999 156s69.166 79 119.499 102s110.833 34.5 181.5 34.5c70 0 130.167 -11.5 180.5 -34.5s90.333 -56.833 120 -101.5s51.334 -96.5 65.001 -155.5s20.834 -127.5 21.501 -205.5v-8c0 -340.667 -129 -511 -387 -511
c-256.667 0 -385 170.333 -385 511z" />
    <glyph glyph-name="ampersand" unicode="&#x26;" horiz-adv-x="1194" 
d="M606 313c-83.333 134.667 -144 239.669 -182 315.002c-12.667 -12.667 -23.5 -39.834 -32.5 -81.501s-13.5 -85.834 -13.5 -132.501c0 -54.667 7 -100.5 21 -137.5s35.667 -55.5 65 -55.5c46.667 0 94 30.667 142 92zM507 1105c32.667 47.333 59.5 100.831 80.5 160.498
s31.5 116.5 31.5 170.5c0 38.667 -7.5 72.834 -22.5 102.501s-39.833 44.5 -74.5 44.5c-57.333 0 -86 -50 -86 -150c0 -103.333 23.667 -212.666 71 -327.999zM1129 262v-284.997c-20 -4 -40 -6 -60 -6c-78 0 -169.333 50 -274 150c-43.333 -48.667 -94.333 -86 -153 -112
s-120.667 -39 -186 -39c-121.333 0 -216.666 39.5 -285.999 118.5s-104 179.167 -104 300.5c0 175.333 76 347.666 228 516.999c-106.667 236.667 -160 412.667 -160 528c0 114.667 32.5 210 97.5 286s154.5 114 268.5 114c117.333 0 212.5 -34.667 285.5 -104
s109.5 -162.333 109.5 -279c0 -108.667 -24.5 -208.834 -73.5 -300.501s-117.833 -183.167 -206.5 -274.5l187 -312c27.333 71.333 41 174.666 41 309.999h276c0 -122 -11.333 -221.167 -34 -297.5s-61.334 -154.5 -116.001 -234.5c19.333 -22 43.333 -40.167 72 -54.5
s58 -22.833 88 -25.5z" />
    <glyph glyph-name="quotesingle" unicode="'" horiz-adv-x="356" 
d="M101 1201l-70 598h304l-71 -598h-163z" />
    <glyph glyph-name="parenleft" unicode="(" horiz-adv-x="696" 
d="M637 158v-222c-66.667 -0.666992 -126.167 11.166 -178.5 35.499s-95 53.5 -128 87.5s-61.333 81.167 -85 141.5s-41.167 114 -52.5 161s-20 108.833 -26 185.5s-9.33301 135.334 -10 176.001s-1 96.667 -1 168v10.5v9v10.5v30c0 72 0.333008 128.333 1 169
s4 99.167 10 175.5s14.667 138.166 26 185.499s28.833 101 52.5 161s52 107.167 85 141.5s75.667 63.5 128 87.5s111.833 36 178.5 36v-222c-26 0.666992 -49.333 -6 -70 -20s-37.834 -33.833 -51.501 -59.5s-25.5 -54.167 -35.5 -85.5s-17.5 -67 -22.5 -107
s-9.16699 -78.167 -12.5 -114.5s-5.16602 -75.5 -5.49902 -117.5s-0.333008 -77.667 0 -107s1 -59.666 2 -90.999s1.5 -52 1.5 -62s-0.5 -30.667 -1.5 -62s-1.66699 -61.5 -2 -90.5s-0.333008 -64.5 0 -106.5s2.16602 -81.167 5.49902 -117.5s7.5 -74.5 12.5 -114.5
s12.5 -75.667 22.5 -107s21.833 -59.833 35.5 -85.5s30.834 -45.5 51.501 -59.5s44 -20.667 70 -20z" />
    <glyph glyph-name="parenright" unicode=")" horiz-adv-x="696" 
d="M110 -64l-0.00195312 222.002c26 -0.666992 49.333 6 70 20s37.667 33.833 51 59.5s25.166 54.167 35.499 85.5s18 67 23 107s9 78.333 12 115s4.66699 75.834 5 117.501s0.5 77 0.5 106s-0.5 59.167 -1.5 90.5s-1.5 52 -1.5 62s0.5 30.667 1.5 62s1.5 61.5 1.5 90.5
s-0.166992 64.5 -0.5 106.5s-2 81.167 -5 117.5s-7 74.666 -12 114.999s-12.667 76.166 -23 107.499s-22.166 59.833 -35.499 85.5s-30.333 45.5 -51 59.5s-44 20.667 -70 20v222c47.333 0 91 -5.33301 131 -16s75 -27.334 105 -50.001s57 -46.5 81 -71.5
s44.333 -57.5 61 -97.5l44 -109c12.667 -32.667 22.5 -74 29.5 -124l17.5 -125c4.66699 -33.333 7.83398 -76.833 9.50098 -130.5s2.66699 -94.167 3 -121.5s0.5 -65.666 0.5 -114.999v-26v-26c0 -71.333 -0.333008 -127.333 -1 -168s-4 -99.334 -10 -176.001
s-14.667 -138.834 -26 -186.501s-28.833 -101.667 -52.5 -162s-52.167 -107.833 -85.5 -142.5s-76.166 -64.167 -128.499 -88.5s-111.833 -36.166 -178.5 -35.499z" />
    <glyph glyph-name="asterisk" unicode="*" horiz-adv-x="913" 
d="M158 974l162 231l-244 94l74 197l223 -118l-27 264h250l-25 -265l223 120l74 -199l-246 -94l165 -230l-198 -116l-118 235l-117 -235z" />
    <glyph glyph-name="plus" unicode="+" horiz-adv-x="762" 
d="M70 583v223h195v194h222v-194h195v-223h-195v-194h-222v194h-195z" />
    <glyph glyph-name="comma" unicode="," horiz-adv-x="469" 
d="M153 -244l-39.999 166.003h15c17.333 0 29.166 0.166992 35.499 0.5s12.5 3.33301 18.5 9s9.5 13.167 10.5 22.5s1.5 24.333 1.5 45h-110v318h323v-88c0.666992 -76.667 0.5 -133.334 -0.5 -170.001s-5.5 -80.834 -13.5 -132.501s-20.667 -88 -38 -109
s-42.833 -38.333 -76.5 -52s-75.5 -16.834 -125.5 -9.50098z" />
    <glyph glyph-name="hyphen" unicode="-" horiz-adv-x="429" 
d="M4 453v223h417v-223h-417z" />
    <glyph glyph-name="period" unicode="." horiz-adv-x="522" 
d="M99 0v317h325v-317h-325z" />
    <glyph glyph-name="slash" unicode="/" horiz-adv-x="895" 
d="M91 0l577 1835h180l-578 -1835h-179z" />
    <glyph glyph-name="zero" unicode="0" horiz-adv-x="1137" 
d="M704 528l0.000976562 741.002c0 172.667 -45 259 -135 259c-24.667 0 -45.667 -6.33301 -63 -19s-30.5 -27.667 -39.5 -45s-16 -39.166 -21 -65.499s-8 -48.5 -9 -66.5s-1.5 -39 -1.5 -63v-741c0 -20.667 0.833008 -40.834 2.5 -60.501s5.16699 -42 10.5 -67
s12.666 -46.667 21.999 -65s22.5 -33.833 39.5 -46.5s36.833 -19 59.5 -19c28 0 51.667 8.83301 71 26.5s33.333 41.167 42 70.5s14.5 56.666 17.5 81.999s4.5 51.666 4.5 78.999zM84.001 528.002l0.000976562 740.999c0 80 9.5 153.5 28.5 220.5s47.5 126.5 85.5 178.5
s88.5 92.667 151.5 122s136.167 44 219.5 44c82.667 0 155.5 -14.667 218.5 -44s113.5 -70.166 151.5 -122.499s66.5 -111.833 85.5 -178.5s28.5 -140 28.5 -220v-741c0 -76.667 -10 -148.5 -30 -215.5s-49.5 -126.5 -88.5 -178.5s-89.833 -93.167 -152.5 -123.5
s-133.667 -45.5 -213 -45.5c-80.667 0 -152.5 15 -215.5 45s-113.833 71 -152.5 123s-67.834 111.5 -87.501 178.5s-29.5 139.167 -29.5 216.5z" />
    <glyph glyph-name="one" unicode="1" horiz-adv-x="676" 
d="M225 0l0.00195312 1337h-182v265c18.667 11.333 43.667 24.5 75 39.5s55.666 27.167 72.999 36.5s36.666 24.666 57.999 45.999s39.333 47 54 77h266v-1801h-344z" />
    <glyph glyph-name="two" unicode="2" horiz-adv-x="1067" 
d="M1018 1339c0 -79.333 -12.499 -157.83 -37.499 -235.497s-60.5 -152.334 -106.5 -224.001s-90.333 -134.834 -133 -189.501s-93.667 -116.5 -153 -185.5s-102.666 -121.833 -129.999 -158.5h560v-346h-958v309l438 627l63 94c16.667 26 34.5 57.333 53.5 94
s33.333 73 43 109s14.5 71.333 14.5 106c0 20.667 -2.5 41.667 -7.5 63s-12.5 42 -22.5 62s-23.833 36.167 -41.5 48.5s-37.834 18.5 -60.501 18.5c-18.667 0 -35.5 -4.33301 -50.5 -13s-27.167 -20.5 -36.5 -35.5s-17.333 -32.167 -24 -51.5s-11.334 -39.833 -14.001 -61.5
s-5 -43.5 -7 -65.5s-2.83301 -42.833 -2.5 -62.5s0.5 -37.834 0.5 -54.501v-24h-345v113c0 66 5.33301 126.5 16 181.5s28 106.167 52 153.5s54.333 87.333 91 120s82 58.167 136 76.5s115.333 27.5 184 27.5c152 0 269.667 -44.5 353 -133.5s125 -209.833 125 -362.5z" />
    <glyph glyph-name="three" unicode="3" horiz-adv-x="1094" 
d="M72 582l348 -0.00195312v-20v-50c0 -12 0.833008 -29.667 2.5 -53s4 -42.166 7 -56.499s7.83301 -30.833 14.5 -49.5s14.667 -33.167 24 -43.5s21.5 -19.333 36.5 -27s31.833 -11.5 50.5 -11.5s35.334 3.33301 50.001 10s26.667 14.5 36 23.5s17.333 22 24 39
s11.5 31.5 14.5 43.5s5.33301 28.833 7 50.5s2.5 37.334 2.5 47.001v45.5c0 83.333 -20.5 147.833 -61.5 193.5s-102.833 67.5 -185.5 65.5v350c40.667 -1.33301 75 0.5 103 5.5s53.5 14.333 76.5 28s40 34.167 51 61.5s16.5 61.666 16.5 102.999
c0 26.667 -1.66699 50.167 -5 70.5s-9.33301 40.5 -18 60.5s-22.334 35.5 -41.001 46.5s-42 16.5 -70 16.5c-18.667 0 -35.5 -3.83301 -50.5 -11.5s-27.167 -16.667 -36.5 -27s-17.333 -24.666 -24 -42.999s-11.5 -34.833 -14.5 -49.5s-5.33301 -33.5 -7 -56.5
s-2.5 -40.5 -2.5 -52.5v-50v-18h-349v114c0 155.333 42.167 277.333 126.5 366s203.5 133 357.5 133c153.333 0 272.333 -44.667 357 -134s127 -211 127 -365c0 -75.333 -15.5 -147.5 -46.5 -216.5s-76.167 -122.167 -135.5 -159.5
c63.333 -46.667 109.5 -108.167 138.5 -184.5s43.5 -158.5 43.5 -246.5c0 -83.333 -8.83301 -158.333 -26.5 -225s-45 -126 -82 -178s-87.167 -92 -150.5 -120s-138.333 -42 -225 -42c-73.333 0 -138 9.33301 -194 28s-101.833 44 -137.5 76s-64.834 72 -87.501 120
s-38.667 98.667 -48 152s-14.666 113.333 -15.999 180v61z" />
    <glyph glyph-name="four" unicode="4" horiz-adv-x="1107" 
d="M370 717h196v540zM62 437v282l440 1082h409v-1084h168v-280h-168v-437h-345v437h-504z" />
    <glyph glyph-name="five" unicode="5" horiz-adv-x="1115" 
d="M95 571l346.003 0.00292969c-0.666992 -32.667 -0.666992 -60.167 0 -82.5s2 -46.666 4 -72.999s5.5 -47.833 10.5 -64.5s11.667 -32.5 20 -47.5s19 -26 32 -33s28.167 -10.5 45.5 -10.5c22 0 41.667 4.33301 59 13s31.333 20.5 42 35.5s19.834 32.333 27.501 52
s13.167 40.667 16.5 63s6.16602 45 8.49902 68s3.16602 45.167 2.49902 66.5s-0.666992 41.333 0 60v27c0 20 -0.333008 37.5 -1 52.5s-2.33398 33.667 -5.00098 56s-7 41.666 -13 57.999s-13.833 32.166 -23.5 47.499s-22.334 27.166 -38.001 35.499
s-33.834 12.5 -54.501 12.5c-32.667 0 -61.5 -14.167 -86.5 -42.5s-44.833 -60.833 -59.5 -97.5h-295v1034h857v-342h-533v-325c64 39.333 122.333 59 175 59c64 0 120.833 -10.333 170.5 -31s89.667 -48 120 -82s55.333 -75.333 75 -124s33.167 -98.5 40.5 -149.5
s11 -106.5 11 -166.5c0 -59.333 -2.66699 -114.5 -8 -165.5s-14.333 -103 -27 -156s-30.834 -100 -54.501 -141s-52.667 -77.833 -87 -110.5s-77.166 -57.834 -128.499 -75.501s-109.666 -26.5 -174.999 -26.5c-74 0 -139 10.667 -195 32s-101.5 50 -136.5 86
s-63.333 80.5 -85 133.5s-36.667 107.833 -45 164.5s-12.5 120 -12.5 190z" />
    <glyph glyph-name="six" unicode="6" horiz-adv-x="1112" 
d="M438 762l-0.00488281 -233.002c0 -20.667 0.833008 -40.834 2.5 -60.501s5.16699 -42 10.5 -67s12.666 -46.667 21.999 -65s22.5 -33.833 39.5 -46.5s36.833 -19 59.5 -19c13.333 0 25.833 1.83301 37.5 5.5s21.834 9.83398 30.501 18.501s16.334 17 23.001 25
s12.334 19.5 17.001 34.5s8.83398 27.167 12.501 36.5s6.33398 23.333 8.00098 42s3.16699 32 4.5 40s2.16602 21.667 2.49902 41s0.5 30.833 0.5 34.5v31.5c0 22.667 -0.333008 41.167 -1 55.5s-2.16699 33.333 -4.5 57s-6.5 43.334 -12.5 59.001
s-13.667 31.334 -23 47.001s-22.166 27.5 -38.499 35.5s-35.166 12 -56.499 12c-54 0 -98.667 -28 -134 -84zM86.9951 549.998v638.003c0 64 4.33301 124.833 13 182.5s24.334 115.5 47.001 173.5s51.667 108 87 150s82 76 140 102s124 39 198 39s140.167 -13.333 198.5 -40
s106 -63.5 143 -110.5s65.167 -102 84.5 -165s29 -131.5 29 -205.5v-32h-339c0 25.333 -0.333008 46.666 -1 63.999s-3.16699 38.666 -7.5 63.999s-10.333 45.833 -18 61.5s-19.167 29.334 -34.5 41.001s-33.666 17.5 -54.999 17.5c-92.667 0 -138 -117.333 -136 -352v-103
c61.333 41.333 130.333 62 207 62c64 0 120.5 -9.83301 169.5 -29.5s88.833 -45.834 119.5 -78.501s55.5 -73 74.5 -121s32.167 -97.5 39.5 -148.5s11 -107.5 11 -169.5c0 -64 -5.33301 -125.167 -16 -183.5s-28.167 -114.333 -52.5 -168s-54.833 -100 -91.5 -139
s-82.834 -70.167 -138.501 -93.5s-117.834 -35 -186.501 -35c-67.333 0 -128.5 11.167 -183.5 33.5s-100.833 52.166 -137.5 89.499s-67.667 81 -93 131s-43.5 102.167 -54.5 156.5s-16.5 110.5 -16.5 168.5z" />
    <glyph glyph-name="seven" unicode="7" horiz-adv-x="827" 
d="M155 0l312 1496h-438v303h775v-177l-310 -1622h-339z" />
    <glyph glyph-name="eight" unicode="8" horiz-adv-x="1088" 
d="M544 251c20 0 37.834 3.33105 53.501 9.99805s28.334 14.5 38.001 23.5s18.167 21.667 25.5 38s12.666 30.833 15.999 43.5s5.83301 29.334 7.5 50.001s2.66699 36.334 3 47.001s0.5 25.667 0.5 45c0 197.333 -48 296 -144 296c-96.667 0 -145 -98.667 -145 -296
c0 -18.667 0.166992 -33.834 0.5 -45.501s1.5 -27.5 3.5 -47.5s4.66699 -36.5 8 -49.5s8.66602 -27.5 15.999 -43.5s16 -28.667 26 -38s22.667 -17.166 38 -23.499s33 -9.5 53 -9.5zM214.001 951.998c-88 90.667 -131.997 219.001 -131.997 385.001
c0 154 39.167 275.667 117.5 365s193.166 134 344.499 134s265.666 -44.833 342.999 -134.5s116 -211.167 116 -364.5c0 -168.667 -43.667 -297 -131 -385c32 -26 58.667 -55.167 80 -87.5s37.333 -67.333 48 -105s18 -74.334 22 -110.001s6 -76.167 6 -121.5
c0 -85.333 -8.5 -161 -25.5 -227s-43.833 -124.5 -80.5 -175.5s-86.834 -89.833 -150.501 -116.5s-139.5 -40 -227.5 -40c-322.667 0 -484 186.333 -484 559c0 95.333 10.333 177.5 31 246.5s61.667 128.167 123 177.5zM544.004 1074c15.333 0 29.167 4.00098 41.5 12.001
s22.5 17.667 30.5 29s14.667 26.666 20 45.999s9.33301 36.5 12 51.5s4.66699 34 6 57s2.16602 40.167 2.49902 51.5s0.5 26.666 0.5 45.999c0 129.333 -37.667 194 -113 194c-24 0 -44.167 -6.5 -60.5 -19.5s-28.166 -30.5 -35.499 -52.5s-12.333 -42.5 -15 -61.5
s-4 -39.167 -4 -60.5s0.333008 -39.666 1 -54.999s2 -35.833 4 -61.5s5.5 -47.5 10.5 -65.5s11.5 -36.167 19.5 -54.5s18.833 -32.333 32.5 -42s29.5 -14.5 47.5 -14.5z" />
    <glyph glyph-name="nine" unicode="9" horiz-adv-x="1135" 
d="M702 1034v237c0 26.667 -1.66699 52.834 -5 78.501s-9.16602 53.167 -17.499 82.5s-22.333 53 -42 71s-43.5 27 -71.5 27c-18.667 0 -35.334 -4.16699 -50.001 -12.5s-26.5 -18.333 -35.5 -30s-16.833 -27.5 -23.5 -47.5s-11.5 -37.667 -14.5 -53s-5.33301 -35 -7 -59
s-2.66699 -41.667 -3 -53s-0.5 -27 -0.5 -47v-46c0 -10 0.833008 -26.5 2.5 -49.5s4 -41 7 -54s7.83301 -28.5 14.5 -46.5s14.667 -32 24 -42s21.333 -18.667 36 -26s31.334 -11 50.001 -11c26.667 0 52.167 7.66699 76.5 23s44.166 34.666 59.499 57.999zM101 489
l-0.000976562 29.999h341c0 -20.667 0.333008 -38 1 -52s2 -31.833 4 -53.5s5.83301 -39.834 11.5 -54.501s12.834 -29.334 21.501 -44.001s20.334 -25.667 35.001 -33s31.667 -11 51 -11s36.666 5.33301 51.999 16s27.666 23.5 36.999 38.5s17.333 34.833 24 59.5
s11.667 46.834 15 66.501s5.83301 44.334 7.5 74.001s2.5 51.834 2.5 66.501v58v20v45c-60 -33.333 -126.667 -50 -200 -50c-282 0 -423 182.333 -423 547c0 63.333 5.33301 124.166 16 182.499s28.334 114.666 53.001 168.999s55.334 101.333 92.001 141
s82.667 71.334 138 95.001s117.333 35.5 186 35.5c66.667 0 127.5 -12 182.5 -36s100.833 -56.167 137.5 -96.5s67.667 -87.5 93 -141.5s43.666 -110.167 54.999 -168.5s17 -118.5 17 -180.5v-560c0 -68.667 -4.16699 -133.5 -12.5 -194.5s-23.833 -122 -46.5 -183
s-51.667 -113.167 -87 -156.5s-82 -78.666 -140 -105.999s-124.333 -41 -199 -41c-76 0 -143.5 13 -202.5 39s-107 62.5 -144 109.5s-65.5 101.5 -85.5 163.5s-31 130.667 -33 206z" />
    <glyph glyph-name="colon" unicode=":" horiz-adv-x="518" 
d="M99 151v315h321v-315h-321zM99 897v316h321v-316h-321z" />
    <glyph glyph-name="semicolon" unicode=";" horiz-adv-x="510" 
d="M154 -95l-39.999 166.003h15c17.333 0 29.166 0.166992 35.499 0.5s12.5 3.33301 18.5 9s9.5 13.167 10.5 22.5s1.5 24.333 1.5 45h-110v318h323v-88c0.666992 -76.667 0.5 -133.334 -0.5 -170.001s-5.5 -80.834 -13.5 -132.501s-20.667 -88 -38 -109
s-42.833 -38.333 -76.5 -52s-75.5 -16.834 -125.5 -9.50098zM87.001 897.003v316h321v-316h-321z" />
    <glyph glyph-name="less" unicode="&#x3c;" horiz-adv-x="865" 
d="M74 525v274l676 473v-293l-444 -315l444 -319v-292z" />
    <glyph glyph-name="equal" unicode="=" horiz-adv-x="762" 
d="M70 258v222h612v-222h-612zM70 583v223h612v-223h-612z" />
    <glyph glyph-name="greater" unicode="&#x3e;" horiz-adv-x="865" 
d="M115 53v292l444 319l-444 315v293l676 -473v-274z" />
    <glyph glyph-name="question" unicode="?" horiz-adv-x="974" 
d="M259 0v324h334v-324h-334zM259 480v387.996c44 30 85.833 63.833 125.5 101.5s76.834 79.167 111.501 124.5s62.167 94.833 82.5 148.5s30.5 106.834 30.5 159.501c0 46 -10.833 80.667 -32.5 104s-52.834 35 -93.501 35c-37.333 0 -65.5 -15.167 -84.5 -45.5
s-28.5 -68.166 -28.5 -113.499c0 -41.333 6.33301 -82.666 19 -123.999l-314 -60c-19.333 74 -29 144 -29 210c0 128 36.333 231.167 109 309.5s182 117.5 328 117.5c147.333 0 261.333 -39.167 342 -117.5s121 -190.166 121 -335.499
c0 -129.333 -31.167 -249.333 -93.5 -360s-148.833 -198 -259.5 -262v-280h-334z" />
    <glyph glyph-name="at" unicode="@" horiz-adv-x="1727" 
d="M1245 152l108.003 -226c-165.333 -37.333 -304 -56 -416 -56c-154 0 -285.667 19.667 -395 59s-197.666 98.666 -264.999 177.999s-116.5 175 -147.5 287s-46.5 244.333 -46.5 397c0 122 18 233.833 54 335.5s87.167 189 153.5 262s149.5 129.667 249.5 170
s211.333 60.5 334 60.5c169.333 0 313 -34.333 431 -103s205.833 -164.5 263.5 -287.5s86.5 -268.833 86.5 -437.5c0 -63.333 -7.33301 -123.5 -22 -180.5s-36.834 -109.667 -66.501 -158s-70 -86.666 -121 -114.999s-109.5 -42.5 -175.5 -42.5
c-54 0 -105.333 9.83301 -154 29.5s-89.667 48.834 -123 87.501c-32.667 -43.333 -62.834 -73.666 -90.501 -90.999s-56.167 -26 -85.5 -26c-73.333 0 -136.833 21 -190.5 63s-92.834 94.167 -117.501 156.5s-37 129.5 -37 201.5c0 43.333 2.66699 87 8 131
s15.666 90.167 30.999 138.5s34.5 90.833 57.5 127.5s53.833 67 92.5 91s82.667 36 132 36c58.667 0 102 -21 130 -63v54h287v-589v-6c0 -11.333 0.166992 -20.166 0.5 -26.499s1.33301 -14.833 3 -25.5s4.33398 -18.834 8.00098 -24.501s9.16699 -10.834 16.5 -15.501
s16.333 -7 27 -7c22 0 40.667 9.83301 56 29.5s26 45.167 32 76.5s10 58.333 12 81s3 45 3 67c0 93.333 -7.66699 174.833 -23 244.5s-41.166 132.667 -77.499 189s-87.333 99.166 -153 128.499s-145.834 44 -240.501 44c-86 0 -162 -16 -228 -48
s-118.667 -76.333 -158 -133s-68.833 -120.667 -88.5 -192s-29.5 -149 -29.5 -233c0 -87.333 5.16699 -165 15.5 -233s28.666 -131.833 54.999 -191.5s60.666 -109 102.999 -148s96.5 -69.5 162.5 -91.5s143 -33 231 -33c84.667 0 187.334 19.333 308.001 58zM923.003 565
l-0.000976562 404c-1.33301 10.667 -5.66602 19.834 -12.999 27.501s-16.333 11.5 -27 11.5c-20 0 -37.667 -4.16699 -53 -12.5s-27.333 -20.833 -36 -37.5s-15.667 -32.667 -21 -48s-8.83301 -35.5 -10.5 -60.5s-2.66699 -44.333 -3 -58s-0.5 -31.834 -0.5 -54.501v-21
c0 -20 1.33301 -39 4 -57s7.16699 -37 13.5 -57s16.833 -35.833 31.5 -47.5s32.667 -17.5 54 -17.5c22.667 0 43 9.33301 61 28z" />
    <glyph glyph-name="A" unicode="A" horiz-adv-x="1117" 
d="M465 609h186l-91 668zM9 0l389 1800h322l388 -1800h-359l-74 385h-235l-70 -385h-361z" />
    <glyph glyph-name="B" unicode="B" horiz-adv-x="1140" 
d="M471 257l34.002 -0.00195312c47.333 0 85.666 5.5 114.999 16.5s51.666 29.833 66.999 56.5s25.5 56.834 30.5 90.501s7.5 78.834 7.5 135.501c0 94 -16.5 167 -49.5 219s-89.167 78 -168.5 78h-36v-596zM469.002 1092l61.999 0.000976562c33.333 0 61.333 6.33301 84 19
s39.834 31.167 51.501 55.5s19.834 50.5 24.501 78.5s7 61 7 99c0 30 -2.16699 56.333 -6.5 79s-9.16602 41.5 -14.499 56.5s-14.333 27.667 -27 38s-23.834 18 -33.501 23s-24.334 8.66699 -44.001 11s-35.5 3.66602 -47.5 3.99902s-30.667 0.5 -56 0.5v-464z
M107.001 -0.000976562l-0.000976562 1800h371c66.667 0 125.5 -3.5 176.5 -10.5s101 -20.667 150 -41s89.333 -47.5 121 -81.5s57 -78.833 76 -134.5s28.5 -121.5 28.5 -197.5c0 -94 -22.167 -168 -66.5 -222s-113.166 -96.667 -206.499 -128c214 -52 321 -203.333 321 -454
c0 -180.667 -43.333 -314.334 -130 -401.001s-219 -130 -397 -130h-444z" />
    <glyph glyph-name="C" unicode="C" horiz-adv-x="1174" 
d="M84 601l0.00292969 595.999c0 425.333 174 638 522 638c73.333 0 138.5 -9.83301 195.5 -29.5s104.833 -46.834 143.5 -81.501s70.5 -77.334 95.5 -128.001s43 -105.667 54 -165s16.5 -124.666 16.5 -195.999v-155h-358v166c0 32.667 -0.666992 60.834 -2 84.501
s-4.83301 50.667 -10.5 81s-13.334 55 -23.001 74s-24 35.167 -43 48.5s-41.833 20 -68.5 20c-105.333 0 -158 -88.667 -158 -266v-777c0 -176.667 52.667 -265 158 -265c31.333 0 57.666 9 78.999 27s36.666 43.5 45.999 76.5s15.666 65.333 18.999 97s5 67.834 5 108.501
v185h356v-152c-1.33301 -68.667 -7 -132 -17 -190s-27 -114.333 -51 -169s-54.5 -100.834 -91.5 -138.501s-84.833 -68 -143.5 -91s-126 -34.5 -202 -34.5c-78 0 -147.167 11.167 -207.5 33.5s-110 52.333 -149 90s-71.167 84 -96.5 139s-43.166 112.833 -53.499 173.5
s-15.5 127.334 -15.5 200.001z" />
    <glyph glyph-name="D" unicode="D" horiz-adv-x="1164" 
d="M107 0v1800h376c120 0 218.833 -10.833 296.5 -32.5s138.667 -57.334 183 -107.001s75 -109.167 92 -178.5s25.5 -157.666 25.5 -264.999v-590c0 -64 -2 -119.833 -6 -167.5s-11.5 -94.334 -22.5 -140.001s-26 -84.334 -45 -116.001s-43.5 -61.167 -73.5 -88.5
s-66.167 -49 -108.5 -65s-92 -28.333 -149 -37s-122.5 -13 -196.5 -13h-372zM485 255.002c34.667 0 61.999 0.50293 81.999 1.50293s40 3.5 60 7.5s34.667 9.5 44 16.5s18 17.167 26 30.5s13.167 29.166 15.5 47.499s3.5 41.166 3.5 68.499v969
c0 59.333 -17.667 98.666 -53 117.999s-94.666 29.333 -177.999 30v-1289z" />
    <glyph glyph-name="E" unicode="E" horiz-adv-x="881" 
d="M107 0v1800h751v-250h-387v-490h274v-256h-274v-554h387v-250h-751z" />
    <glyph glyph-name="F" unicode="F" horiz-adv-x="856" 
d="M107 0v1800h751v-250h-387v-490h274v-256h-274v-804h-364z" />
    <glyph glyph-name="G" unicode="G" horiz-adv-x="1238" 
d="M84 563l0.00195312 634c0 425.333 177 638 531 638c74.667 0 141.167 -9.83301 199.5 -29.5s107.166 -46.834 146.499 -81.501s71.666 -77.334 96.999 -128.001s43.666 -105.667 54.999 -165s17 -124.666 17 -195.999v-106h-348v126c0 31.333 -0.833008 58.833 -2.5 82.5
s-5.83398 50 -12.501 79s-15.667 52.833 -27 71.5s-27.666 34.334 -48.999 47.001s-46.666 19 -75.999 19c-111.333 0 -167 -88.667 -167 -266v-777c0 -176.667 55.667 -265 167 -265c110.667 0 166 91.667 166 275v144h-206v261h570v-926h-250l-46 126
c-30.667 -48 -74.334 -86.833 -131.001 -116.5s-115 -44.5 -175 -44.5c-64.667 0 -123.5 11.833 -176.5 35.5s-96.667 55 -131 94s-63.166 84.833 -86.499 137.5s-40 106.5 -50 161.5s-15 111.5 -15 169.5z" />
    <glyph glyph-name="H" unicode="H" horiz-adv-x="1205" 
d="M107 0v1800h364v-738h261v738h366v-1800h-366v803h-261v-803h-364z" />
    <glyph glyph-name="I" unicode="I" horiz-adv-x="578" 
d="M107 0v1800h364v-1800h-364z" />
    <glyph glyph-name="J" unicode="J" horiz-adv-x="691" 
d="M0 -34l-0.000976562 255.999c88 -1.33301 146.667 11.834 176 39.501s44 85.5 44 173.5v1365h364v-1368c0 -66 -3.16699 -122.167 -9.5 -168.5s-18.166 -89.333 -35.499 -129s-41 -71.167 -71 -94.5s-68.833 -41.5 -116.5 -54.5s-105.167 -19.5 -172.5 -19.5h-179z" />
    <glyph glyph-name="K" unicode="K" horiz-adv-x="1149" 
d="M107 0v1800h364v-683l282 683h407l-367 -737l394 -1063h-378l-272 823l-66 -170v-653h-364z" />
    <glyph glyph-name="L" unicode="L" horiz-adv-x="838" 
d="M107 0v1800h364v-1550h358v-250h-722z" />
    <glyph glyph-name="M" unicode="M" horiz-adv-x="1470" 
d="M107 0v1800h436l192 -1200l207 1200h421v-1800h-268l-8 1266c-20 -130 -55 -341 -105 -633s-85 -503 -105 -633h-272l-221 1274l-8 -1274h-269z" />
    <glyph glyph-name="N" unicode="N" horiz-adv-x="1173" 
d="M107 0v1801h262l395 -942v942h302v-1801h-252l-394 999v-999h-313z" />
    <glyph glyph-name="O" unicode="O" horiz-adv-x="1221" 
d="M84 592l0.00292969 604.999c0 425.333 175.333 638 526 638c351.333 0 527 -212.667 527 -638v-596c0 -72 -5.33301 -138.5 -16 -199.5s-28.834 -118.833 -54.501 -173.5s-58.334 -101.167 -98.001 -139.5s-89.834 -68.5 -150.501 -90.5s-130 -33 -208 -33
c-77.333 0 -146.333 10.833 -207 32.5s-110.667 51 -150 88s-71.833 82.333 -97.5 136s-44 110.834 -55 171.501s-16.5 127 -16.5 199zM773.003 509.999l0.00195312 778c0 177.333 -54.333 266 -163 266c-32.667 0 -60.334 -8.16699 -83.001 -24.5
s-39.334 -38.666 -50.001 -66.999s-18.167 -56.333 -22.5 -84s-6.5 -57.834 -6.5 -90.501v-778c0 -176.667 54 -265 162 -265c108.667 0 163 88.333 163 265z" />
    <glyph glyph-name="P" unicode="P" horiz-adv-x="1022" 
d="M474 1027c19.333 0 36.498 1.16699 51.498 3.5s28.167 5 39.5 8s21.333 8.5 30 16.5s15.834 15 21.501 21s10.5 15.833 14.5 29.5s7 24.834 9 33.501s3.5 22.667 4.5 42s1.5 34.833 1.5 46.5v54.5v15c0 26 -0.166992 45.667 -0.5 59s-1.5 30.333 -3.5 51
s-5.16699 36.167 -9.5 46.5s-10.666 22.166 -18.999 35.499s-18.5 23 -30.5 29s-27.167 11.333 -45.5 16s-39.5 7 -63.5 7v-514zM106.998 0l-0.000976562 1800h435c156.667 0 270.667 -43.667 342 -131s107 -213.666 107 -378.999c0 -81.333 -7.83301 -152 -23.5 -212
s-37.5 -109.5 -65.5 -148.5s-64 -70.333 -108 -94s-91.667 -40.334 -143 -50.001s-110.666 -14.834 -177.999 -15.501v-770h-366z" />
    <glyph glyph-name="Q" unicode="Q" horiz-adv-x="1228" 
d="M780 511l-0.000976562 777c0 32.667 -2.16699 63.167 -6.5 91.5s-12.166 56.333 -23.499 84s-28.5 49.667 -51.5 66s-51.167 24.5 -84.5 24.5c-32.667 0 -60.667 -8.16699 -84 -24.5s-40.5 -38.5 -51.5 -66.5s-18.833 -56 -23.5 -84s-7 -58.333 -7 -91v-777
c0 -176.667 55.333 -265 166 -265s166 88.333 166 265zM83.999 592l-0.000976562 605.001c0 74 5.5 142 16.5 204s29.333 120.333 55 175s58.5 100.667 98.5 138s90.5 66.833 151.5 88.5s130.5 32.5 208.5 32.5s147.5 -10.833 208.5 -32.5s111.5 -51.167 151.5 -88.5
s72.833 -83.333 98.5 -138s44 -113 55 -175s16.5 -130 16.5 -204v-596c0 -246.667 -71 -429.667 -213 -549c20 -43.333 78.667 -65 176 -65v-221c-181.333 0 -314.666 67.333 -399.999 202c-28.667 -3.33301 -61.667 -5 -99 -5c-89.333 0 -168 15.5 -236 46.5
s-122.667 74.833 -164 131.5s-72.333 122.667 -93 198s-31 159.666 -31 252.999z" />
    <glyph glyph-name="R" unicode="R" horiz-adv-x="1122" 
d="M471 1051l104.001 -0.00292969c28 0 52 9.33301 72 28s34.5 42.334 43.5 71.001s15.333 55 19 79s5.5 46.667 5.5 68s-1.5 43.333 -4.5 66s-8.33301 47.834 -16 75.501s-20.334 50.334 -38.001 68.001s-39.167 26.5 -64.5 26.5h-121v-482zM107.001 -0.00292969
l0.00292969 1800h396c90 0 169.167 -8.5 237.5 -25.5s128.166 -43.667 179.499 -80s90.333 -85.333 117 -147s40 -135.5 40 -221.5c0 -37.333 -1.33301 -70.666 -4 -99.999s-8.83398 -62.833 -18.501 -100.5s-22.834 -71 -39.501 -100s-40.667 -57.5 -72 -85.5
s-68.333 -51.333 -111 -70l282 -870h-377l-206 829h-60v-829h-364z" />
    <glyph glyph-name="S" unicode="S" horiz-adv-x="1053" 
d="M45 515l369 70.998c0 -36.667 0.666992 -69 2 -97s4.83301 -58.5 10.5 -91.5s13.334 -60 23.001 -81s23.334 -38.667 41.001 -53s38.5 -21.5 62.5 -21.5c72 0 108 46 108 138c0 126 -71 251.333 -213 376l-113 96c-36 30 -64.667 55 -86 75s-46.5 47 -75.5 81
s-51.667 66.833 -68 98.5s-30.333 69.834 -42 114.501s-17.5 92 -17.5 142c0 146 46.333 261.5 139 346.5s215.667 127.5 369 127.5c127.333 0 235.666 -45.333 324.999 -136s134 -200 134 -328l-1 -13v-30l-376 -52c0 7.33301 0.5 18.833 1.5 34.5s1.5 28.5 1.5 38.5
c0 24 -1.66699 47 -5 69s-8.83301 44 -16.5 66s-19.5 39.5 -35.5 52.5s-35.333 19.5 -58 19.5c-40 0 -70 -15.667 -90 -47s-30 -68.333 -30 -111c0 -37.333 5.83301 -72.333 17.5 -105s29.334 -63.167 53.001 -91.5s45.5 -51.833 65.5 -70.5s46.667 -41.5 80 -68.5
s57 -46.833 71 -59.5c51.333 -45.333 94.666 -87.833 129.999 -127.5s68.666 -84.5 99.999 -134.5s54.833 -104 70.5 -162s23.5 -120.667 23.5 -188c0 -126 -45 -229.167 -135 -309.5s-199.333 -120.5 -328 -120.5c-83.333 0 -157.333 15.333 -222 46
s-116.834 72.334 -156.501 125.001s-70.167 111 -91.5 175s-33.666 132.667 -36.999 206z" />
    <glyph glyph-name="T" unicode="T" horiz-adv-x="915" 
d="M278 0v1528h-264v272h887v-272h-259v-1528h-364z" />
    <glyph glyph-name="U" unicode="U" 
d="M99 669l-0.0117188 1131h364v-1120c0 -64 0.333008 -110.5 1 -139.5s2.33398 -64.333 5.00098 -106s7.33398 -70.834 14.001 -87.501s15.834 -34.667 27.501 -54s26.834 -32 45.501 -38s41.334 -9 68.001 -9s49.334 3 68.001 9s33.834 18.5 45.501 37.5
s20.834 36.833 27.501 53.5s11.334 45.5 14.001 86.5s4.33398 75.667 5.00098 104s1 74.166 1 137.499v6v1120h364v-1131c0 -57.333 -1.66699 -109.333 -5 -156s-9.66602 -95 -18.999 -145s-22 -94.167 -38 -132.5s-37.333 -75 -64 -110s-58.167 -63.833 -94.5 -86.5
s-80.166 -40.667 -131.499 -54s-109 -20 -173 -20s-121.667 6.66699 -173 20s-95 31.333 -131 54s-67.333 51.5 -94 86.5s-48 71.667 -64 110s-28.833 82.5 -38.5 132.5s-16.167 98.333 -19.5 145s-5 98.667 -5 156z" />
    <glyph glyph-name="V" unicode="V" horiz-adv-x="1044" 
d="M343 0l-331 1800h345l159 -1091l176 1091h340l-356 -1800h-333z" />
    <glyph glyph-name="W" unicode="W" horiz-adv-x="1464" 
d="M270 0l-249 1800h310l112 -1192l154 1192h267l151 -1185l117 1185h311l-252 -1800h-311l-151 1178l-148 -1178h-311z" />
    <glyph glyph-name="X" unicode="X" horiz-adv-x="1077" 
d="M23 0l291 931l-293 869h346l169 -538l182 538h338l-291 -863l287 -937h-343l-172 595l-170 -595h-344z" />
    <glyph glyph-name="Y" unicode="Y" horiz-adv-x="1027" 
d="M337 0v595l-338 1205h343l168 -791l93 395.5l92 395.5h333l-339 -1205v-595h-352z" />
    <glyph glyph-name="Z" unicode="Z" horiz-adv-x="998" 
d="M80 0v228l475 1321h-420v250h776v-229l-477 -1320h477v-250h-831z" />
    <glyph glyph-name="bracketleft" unicode="[" horiz-adv-x="779" 
d="M156 -64v1971h547v-158h-259v-1655h259v-158h-547z" />
    <glyph glyph-name="backslash" unicode="\" horiz-adv-x="629" 
d="M265 0l-197 1843h288l198 -1843h-289z" />
    <glyph glyph-name="bracketright" unicode="]" horiz-adv-x="728" 
d="M76 -64v128h256v1664h-256v128h512v-1920h-512z" />
    <glyph glyph-name="asciicircum" unicode="^" horiz-adv-x="962" 
d="M65 907l271 676h277l271 -676h-290l-120 418l-119 -418h-290z" />
    <glyph glyph-name="underscore" unicode="_" horiz-adv-x="829" 
d="M6 0v223h806v-223h-806z" />
    <glyph glyph-name="grave" unicode="`" horiz-adv-x="640" 
d="M353 1393l-277 442h346l136 -442h-205z" />
    <glyph glyph-name="a" unicode="a" horiz-adv-x="976" 
d="M552 295v321c-110.667 -89.333 -166 -187.333 -166 -294c0 -26.667 5.16699 -49.5 15.5 -68.5s27.833 -28.5 52.5 -28.5c14 0 27.833 4.5 41.5 13.5s23.5 16.833 29.5 23.5s15 17.667 27 33zM620 0l-32.9971 134.996c-19.333 -60.667 -51 -103.167 -95 -127.5
s-98.667 -36.5 -164 -36.5c-48 0 -90 9.33301 -126 28s-64.167 43.834 -84.5 75.501s-35.333 65.667 -45 102s-14.5 74.5 -14.5 114.5c0 45.333 4.66699 87.333 14 126s21.166 72.834 35.499 102.501s34.333 58.167 60 85.5s50.667 50.5 75 69.5s55.5 38.667 93.5 59
s72 37.333 102 51s67.667 29.834 113 48.501v110c0 46 -5.66699 80.333 -17 103s-30.666 34 -57.999 34c-18.667 0 -33.834 -3.83301 -45.501 -11.5s-19.834 -19.167 -24.501 -34.5s-7.66699 -29.166 -9 -41.499s-2 -28.833 -2 -49.5v-74h-327
c0 150 37.667 265.167 113 345.5s184.666 120.5 327.999 120.5c100 0 187.667 -36.333 263 -109s113 -159 113 -259v-620c0 -107.333 14.333 -223 43 -347h-308z" />
    <glyph glyph-name="b" unicode="b" horiz-adv-x="999" 
d="M95 0v1800h337v-583c27.333 35.333 59.833 63.833 97.5 85.5s77.5 32.5 119.5 32.5c76.667 0 141 -31.667 193 -95s78 -136.333 78 -219v-771c0 -74.667 -25 -139.834 -75 -195.501s-112 -83.5 -186 -83.5c-44.667 0 -87 11.333 -127 34s-73.333 53.667 -100 93v-98h-337
zM583 319.001v674.995c0 57.333 -18.667 86 -56 86c-12 0 -25.167 -5.66699 -39.5 -17s-24.166 -20.333 -29.499 -27l-26 -34v-696l6 -8c3.33301 -5.33301 5.66602 -8.66602 6.99902 -9.99902s4 -4.66602 8 -9.99902s7 -9.16602 9 -11.499l9 -10.5
c4 -4.66699 7.5 -8 10.5 -10s6.5 -4.66699 10.5 -8s7.83301 -5.66602 11.5 -6.99902l11.5 -4c4 -1.33301 8 -2 12 -2c16 0 28.5 5.33301 37.5 16s14.333 21.834 16 33.501s2.5 26.5 2.5 44.5z" />
    <glyph glyph-name="c" unicode="c" horiz-adv-x="928" 
d="M78 334l0.000976562 559.998c0 138.667 33 246.834 99 324.501s166.667 116.5 302 116.5c136 0 236.833 -38.667 302.5 -116s98.5 -185.666 98.5 -324.999v-114h-331v149c0 52 -4.5 90.167 -13.5 114.5s-27.833 36.5 -56.5 36.5c-42.667 0 -64 -33 -64 -99v-646
c0 -73.333 21.333 -110 64 -110c16 0 28.833 3.33301 38.5 10s16.667 18 21 34s7.16602 32.5 8.49902 49.5s2 40.833 2 71.5v139h331v-195c0 -72 -18.667 -136.167 -56 -192.5s-86.333 -98.833 -147 -127.5s-126.667 -43 -198 -43c-110 0 -204.333 33.5 -283 100.5
s-118 154.5 -118 262.5z" />
    <glyph glyph-name="d" unicode="d" horiz-adv-x="999" 
d="M79 250v770.999c0 82.667 26 155.667 78 219s116.333 95 193 95c42 0 81.833 -10.833 119.5 -32.5s70.167 -50.167 97.5 -85.5v583h337v-1800h-337v98c-26.667 -39.333 -60 -70.333 -100 -93s-82.333 -34 -127 -34c-74 0 -136 27.833 -186 83.5s-75 120.834 -75 195.501z
M567 296.999l-0.000976562 708.001c-38 50 -69.667 75 -95 75c-37.333 0 -56 -28.667 -56 -86v-675c0 -18 0.833008 -32.833 2.5 -44.5s7 -22.834 16 -33.501s21.5 -16 37.5 -16c28.667 0 60.334 24 95.001 72z" />
    <glyph glyph-name="e" unicode="e" horiz-adv-x="940" 
d="M415 801h131v180c0 66 -22.333 99 -67 99c-42.667 0 -64 -33 -64 -99v-180zM78 339v554.998c0 138.667 33 246.834 99 324.501s166.667 116.5 302 116.5c136 0 236.833 -38.667 302.5 -116s98.5 -185.666 98.5 -324.999v-270h-465v-289c0 -73.333 21.333 -110 64 -110
c46.667 0 70 39.333 70 118v143h331v-147c0 -108.667 -39.333 -197.167 -118 -265.5s-173 -102.5 -283 -102.5s-204.333 34.333 -283 103s-118 157 -118 265z" />
    <glyph glyph-name="f" unicode="f" horiz-adv-x="647" 
d="M141 0l-0.000976562 1080h-76v225h76v2c0.666992 40 2.33398 75.333 5.00098 106s7.5 63.334 14.5 98.001s17.333 64.5 31 89.5s30.834 48.167 51.501 69.5s47 37.5 79 48.5s68.667 16.5 110 16.5c28 0 59.667 -1.16699 95 -3.5s63.666 -4.83301 84.999 -7.5l32 -3v-252
c-46 4 -75.333 6 -88 6c-28 0 -48 -7.83301 -60 -23.5s-18 -44.167 -18 -85.5v-61h163v-225h-163v-1080h-337z" />
    <glyph glyph-name="g" unicode="g" horiz-adv-x="965" 
d="M358 79h-24c-30 -47.333 -45 -89 -45 -125c0 -39.333 74 -59 222 -59h6c76 -0.666992 114 22 114 68c0 16 -4.33301 30.5 -13 43.5s-21.5 23.5 -38.5 31.5s-33.833 14.667 -50.5 20s-37 9.33301 -61 12s-43.167 4.66699 -57.5 6s-31.833 2.33301 -52.5 3zM462 632
c54.667 0 82.0039 77.335 82.0039 232.002c0 158.667 -25.667 238 -77 238c-12.667 0 -23.834 -3.33301 -33.501 -10s-17.334 -16.834 -23.001 -30.501s-10.334 -27.667 -14.001 -42s-6.33398 -32.333 -8.00098 -54s-2.66699 -40.334 -3 -56.001s-0.5 -35.167 -0.5 -58.5
c0 -146 25.667 -219 77 -219zM328.004 339.002c0 -16 11.498 -29.335 34.498 -40.002s52.833 -19.5 89.5 -26.5s77.167 -14.167 121.5 -21.5s88.833 -16.833 133.5 -28.5s85.334 -25.834 122.001 -42.501s66.5 -40 89.5 -70s34.5 -65 34.5 -105
c0 -55.333 -8.16699 -103.833 -24.5 -145.5s-38 -75 -65 -100s-60.5 -45.167 -100.5 -60.5s-80.667 -25.833 -122 -31.5s-87.333 -8.5 -138 -8.5c-320.667 0 -481 78.333 -481 235c0 46 12.667 91.833 38 137.5s58.333 83.167 99 112.5
c-27.333 14 -53.666 30.5 -78.999 49.5s-38 37.167 -38 54.5c0 38 44.333 113.333 133 226c-68 124 -102 248.667 -102 374c0 64 7.5 124.167 22.5 180.5s37.833 107.833 68.5 154.5s72.167 83.667 124.5 111s112.833 41 181.5 41c102.667 0 180 -27.667 232 -83
c48.667 55.333 130.334 83 245.001 83h42l-28 -241c-66 0 -113.667 -14.667 -143 -44c28 -50 42 -125.667 42 -227c0 -59.333 -8.83301 -115.666 -26.5 -168.999s-43 -100.666 -76 -141.999s-75.333 -74 -127 -98s-108.834 -36 -171.501 -36c-12 0 -27 1.33301 -45 4
s-33 5.33398 -45 8.00098l-18 3c-15.333 -30 -23 -48 -23 -54z" />
    <glyph glyph-name="h" unicode="h" horiz-adv-x="1005" 
d="M94 0l-0.00195312 1800h337v-588c32.667 36.667 71.5 66.334 116.5 89.001s91.5 34 139.5 34c46 0 87.167 -14.667 123.5 -44s63.333 -65.333 81 -108s26.5 -86.667 26.5 -132v-1051h-337v963c0 2.66699 0.166992 8.5 0.5 17.5s0.333008 16.333 0 22
s-0.666016 13 -0.999023 22s-1.5 16.167 -3.5 21.5s-4.66699 11 -8 17s-7.83301 10.333 -13.5 13s-12.5 4 -20.5 4c-13.333 0 -27.666 -5.33301 -42.999 -16s-26.333 -19.667 -33 -27l-28 -32v-1005h-337z" />
    <glyph glyph-name="i" unicode="i" horiz-adv-x="529" 
d="M96 1419v315h337v-315h-337zM96 0v1305h337v-1305h-337z" />
    <glyph glyph-name="j" unicode="j" horiz-adv-x="572" 
d="M143 1419v315h335v-315h-335zM-21 -284l0.000976562 244c37.333 -10.667 66.666 -16 87.999 -16c50.667 0 76 37 76 111v1250h335v-1279c0 -104.667 -27.5 -187 -82.5 -247s-134.167 -90 -237.5 -90c-50 0 -109.667 9 -179 27z" />
    <glyph glyph-name="k" unicode="k" horiz-adv-x="981" 
d="M99 0v1800h337v-948l206 453h361l-321 -551l320 -754h-349l-172 582l-45 -76v-506h-337z" />
    <glyph glyph-name="l" unicode="l" horiz-adv-x="529" 
d="M96 0v1800h337v-1800h-337z" />
    <glyph glyph-name="m" unicode="m" horiz-adv-x="1473" 
d="M94 0l-0.000976562 1305h337v-93c31.333 36.667 68.666 66.334 111.999 89.001s88 34 134 34c43.333 0 83.333 -14 120 -42s64.334 -63 83.001 -105c32.667 44 72.834 79.5 120.501 106.5s98.167 40.5 151.5 40.5c46 0 87.333 -14.667 124 -44s64.167 -65.5 82.5 -108.5
s27.5 -86.833 27.5 -131.5v-1051h-337v984c0 12 -0.333008 21.833 -1 29.5s-2.33398 17.5 -5.00098 29.5s-7.66699 21.167 -15 27.5s-16.666 9.5 -27.999 9.5c-24 0 -54.667 -24.667 -92 -74v-1006h-337v986c0 62.667 -15.333 94 -46 94c-25.333 0 -57 -25 -95 -75v-1005
h-336z" />
    <glyph glyph-name="n" unicode="n" horiz-adv-x="1005" 
d="M94 0l-0.000976562 1305h337v-92c32 36.667 70.5 66 115.5 88s91.833 33 140.5 33c46 0 87.167 -14.5 123.5 -43.5s63.333 -64.667 81 -107s26.5 -86.166 26.5 -131.499v-1052h-337v993c0 58 -18.667 87 -56 87c-4 0 -8.16699 -0.5 -12.5 -1.5
s-8.66602 -2.66699 -12.999 -5l-11.5 -6c-3.33301 -1.66699 -7.33301 -4.5 -12 -8.5l-10.5 -9c-2.33301 -2 -5.83301 -5.5 -10.5 -10.5s-7.66699 -8.33301 -9 -10s-4 -4.83398 -8 -9.50098l-7 -8v-1012h-337z" />
    <glyph glyph-name="o" unicode="o" horiz-adv-x="973" 
d="M561 335v646.001c0 66 -25.667 99 -77 99c-46 0 -69 -33 -69 -99v-646c0 -14.667 0.5 -26.834 1.5 -36.501s3.5 -21 7.5 -34s11 -22.833 21 -29.5s23 -10 39 -10c51.333 0 77 36.667 77 110zM78 339.001l0.00195312 555c0 139.333 32.833 247.5 98.5 324.5
s168.167 115.5 307.5 115.5s242.666 -38.5 309.999 -115.5s101 -185.167 101 -324.5v-555c0 -108.667 -40.333 -197.167 -121 -265.5s-177.334 -102.5 -290.001 -102.5c-72.667 0 -139.667 14.833 -201 44.5s-110.833 73 -148.5 130s-56.5 121.5 -56.5 193.5z" />
    <glyph glyph-name="p" unicode="p" horiz-adv-x="999" 
d="M95 -371v1676h337v-88c27.333 35.333 59.833 63.833 97.5 85.5s77.5 32.5 119.5 32.5c76.667 0 141 -31.667 193 -95s78 -136.333 78 -219v-771c0 -74.667 -25 -139.834 -75 -195.501s-112 -83.5 -186 -83.5c-44.667 0 -87 11.333 -127 34s-73.333 53.667 -100 93v-469
h-337zM583 319.001l-0.000976562 674.999c0 57.333 -18.667 86 -56 86c-25.333 0 -57 -25 -95 -75v-708c34.667 -48 66.334 -72 95.001 -72c16 0 28.5 5.33301 37.5 16s14.333 21.834 16 33.501s2.5 26.5 2.5 44.5z" />
    <glyph glyph-name="q" unicode="q" horiz-adv-x="979" 
d="M548 -371v459.999c-26 -35.333 -57 -63.833 -93 -85.5s-74 -32.5 -114 -32.5c-73.333 0 -134.833 28.667 -184.5 86s-74.5 123.333 -74.5 198v801c0 74.667 24.833 139.834 74.5 195.501s111.167 83.5 184.5 83.5c40.667 0 79.167 -11.333 115.5 -34
s66.833 -53.667 91.5 -93v97h337v-1676h-337zM548 300.999l-0.00292969 708.001c-10 14 -17.5 24.167 -22.5 30.5s-14 14.666 -27 24.999s-24.833 15.5 -35.5 15.5c-13.333 0 -23.666 -4.83301 -30.999 -14.5s-11.666 -19.667 -12.999 -30s-2 -23.5 -2 -39.5v-687
c0 -56 15.333 -84 46 -84c8 0 16.167 2.33301 24.5 7s16.833 12.167 25.5 22.5s14.834 18 18.501 23z" />
    <glyph glyph-name="r" unicode="r" horiz-adv-x="714" 
d="M94 0l0.000976562 1305h335v-106c51.333 83.333 111.333 125 180 125c19.333 0 49.666 -3.33301 90.999 -10v-284c-62 6.66699 -105.667 10 -131 10c-46 0 -80.833 -14.167 -104.5 -42.5s-35.5 -68.833 -35.5 -121.5v-876h-335z" />
    <glyph glyph-name="s" unicode="s" horiz-adv-x="867" 
d="M38 315l257.997 91.9961c6.66699 -20 12 -35.5 16 -46.5s10.833 -27 20.5 -48s19 -37.167 28 -48.5s20.667 -21.833 35 -31.5s29.5 -14.5 45.5 -14.5c42 0 63 24.667 63 74c0 18 -4.16699 36.5 -12.5 55.5s-17 35.333 -26 49s-24.667 31.5 -47 53.5
s-39.5 38.333 -51.5 49l-63 54l-55 47c-71.333 62 -127.333 123 -168 183s-61 126.667 -61 200c0 56.667 11.833 107.834 35.5 153.501s55.5 82.5 95.5 110.5s84.833 49.5 134.5 64.5s101.834 22.5 156.501 22.5c48.667 0 95.334 -10.333 140.001 -31
s83.834 -48.167 117.501 -82.5s62.834 -73 87.501 -116s43.667 -88.167 57 -135.5l-242 -83l-20 49.5c-5.33301 13 -13.833 30 -25.5 51s-23 37.833 -34 50.5s-24.5 23.834 -40.5 33.501s-32.667 14.5 -50 14.5c-23.333 0 -41.5 -8.33301 -54.5 -25s-19.5 -35.667 -19.5 -57
c0 -29.333 16.167 -62.166 48.5 -98.499s76.833 -78.166 133.5 -125.499l62 -55c33.333 -30 62.166 -58.167 86.499 -84.5s48.666 -56.166 72.999 -89.499s43 -68.333 56 -105s19.5 -73.334 19.5 -110.001c0 -105.333 -37.167 -192.333 -111.5 -261
s-164.166 -103 -269.499 -103c-102 0 -190 31.667 -264 95s-125.333 146.333 -154 249z" />
    <glyph glyph-name="t" unicode="t" horiz-adv-x="668" 
d="M117 448l0.000976562 631.999h-96v225h96v429h337v-429h162v-225h-162v-713c0 -36 6.66699 -62.833 20 -80.5s37 -26.5 71 -26.5c38.667 0 71.334 2 98.001 6v-261c-44 -13.333 -115 -20 -213 -20c-39.333 0 -74.833 4.66699 -106.5 14s-58.334 21.833 -80.001 37.5
s-40.334 35.5 -56.001 59.5s-28 48.5 -37 73.5s-16 54.167 -21 87.5s-8.33301 64.333 -10 93s-2.5 61.334 -2.5 98.001z" />
    <glyph glyph-name="u" unicode="u" horiz-adv-x="1006" 
d="M87 253l0.000976562 1052h337v-970c0 -73.333 15.333 -110 46 -110c30 0 65 24.667 105 74v1006h337v-1305h-337v113c-34 -41.333 -73.667 -75.333 -119 -102s-91.333 -40 -138 -40c-68.667 0 -124.334 29.167 -167.001 87.5s-64 123.166 -64 194.499z" />
    <glyph glyph-name="v" unicode="v" horiz-adv-x="892" 
d="M282 0l-271 1305h316l129 -881l109 881h316l-258 -1305h-341z" />
    <glyph glyph-name="w" unicode="w" horiz-adv-x="1273" 
d="M218 0l-191 1305h281l104 -805l108 805h254l98 -821l114 821h260l-193 -1305h-290l-123 771l-132 -771h-290z" />
    <glyph glyph-name="x" unicode="x" horiz-adv-x="922" 
d="M34 0l240 688l-241 617h333l95 -409l45.5 195.5l49.5 213.5h333l-239 -617l238 -688h-332l-96 410l-94 -410h-332z" />
    <glyph glyph-name="y" unicode="y" horiz-adv-x="872" 
d="M270 117c0 87.333 -17.668 214.502 -53.001 381.502s-76.333 338.5 -123 514.5s-72 273.333 -76 292h307l121 -728l106 728h309l-285 -1340c-10 -45.333 -25.333 -84.833 -46 -118.5s-44.167 -60.334 -70.5 -80.001s-58 -35.5 -95 -47.5s-73.667 -20 -110 -24
s-77.833 -6 -124.5 -6h-43v233c66.667 1.33301 113.834 17.166 141.501 47.499s41.5 79.5 41.5 147.5z" />
    <glyph glyph-name="z" unicode="z" horiz-adv-x="813" 
d="M57 0v228l359 834h-303v243h651v-223l-362 -838h362v-244h-707z" />
    <glyph glyph-name="braceleft" unicode="{" horiz-adv-x="762" 
d="M682 158l0.000976562 -221.995c-79.333 0 -147.666 9.16699 -204.999 27.5s-103.666 43.5 -138.999 75.5s-63.5 73.833 -84.5 125.5s-35.167 106.167 -42.5 163.5s-11 125.333 -11 204c0 10 0.166992 25.167 0.5 45.5s0.666016 35.666 0.999023 45.999
s-0.166992 23.833 -1.5 40.5s-3.5 29.5 -6.5 38.5s-7.66699 19.167 -14 30.5s-14.166 19.833 -23.499 25.5s-21.333 10.334 -36 14.001s-31.334 5.5 -50.001 5.5v287c21.333 0 40 4.16699 56 12.5s28.667 21.166 38 38.499s16.833 34.333 22.5 51s9.5 38 11.5 64
s3.16699 46.667 3.5 62s0.166016 35.5 -0.500977 60.5s-1 40.167 -1 45.5c0 106 7.66699 191.333 23 256s42.833 116.167 82.5 154.5s88.5 64.166 146.5 77.499s134.667 20 230 20v-222c-38.667 0 -70.167 -3.66699 -94.5 -11s-43.5 -16 -57.5 -26s-24 -29.167 -30 -57.5
s-9.66699 -54.166 -11 -77.499s-2 -61.333 -2 -114c0 -41.333 -2.33301 -82.166 -7 -122.499s-12.834 -83.5 -24.501 -129.5s-30 -87.833 -55 -125.5s-55.167 -66.834 -90.5 -87.501c34 -19.333 62.667 -43.333 86 -72s40.833 -61.334 52.5 -98.001
s20.167 -71.167 25.5 -103.5s9 -70.5 11 -114.5c0.666992 -15.333 1.5 -37 2.5 -65s2 -49.5 3 -64.5s2.5 -34.5 4.5 -58.5s5 -42.833 9 -56.5s9 -29.334 15 -47.001s13.667 -31.334 23 -41.001s20.333 -19.334 33 -29.001s28 -16.5 46 -20.5s38.333 -6 61 -6z" />
    <glyph glyph-name="bar" unicode="|" horiz-adv-x="429" 
d="M134 -130v2102h222v-2102h-222z" />
    <glyph glyph-name="braceright" unicode="}" horiz-adv-x="762" 
d="M70 -64l-0.00390625 222.002c20 0 38.167 2 54.5 6s30.666 8.66699 42.999 14s23.333 14 33 26s17.667 22.333 24 31s11.833 22.167 16.5 40.5s8.33398 33.166 11.001 44.499s4.83398 28.5 6.50098 51.5s2.83398 40.5 3.50098 52.5s1.66699 31.333 3 58v12.5
c0 3 0.166992 7 0.5 12s0.5 9.5 0.5 13.5c1.33301 36.667 3.33301 68 6 94s7.83398 55.833 15.501 89.5s17.5 62.5 29.5 86.5s28.5 48 49.5 72s46.167 44 75.5 60c-34.667 22 -64.5 54.167 -89.5 96.5s-43.333 89.166 -55 140.499s-20 99.5 -25 144.5
s-7.5 90.167 -7.5 135.5v52c0 11.333 -0.5 26 -1.5 44s-2.33301 31 -4 39s-4.16699 18.333 -7.5 31s-7.33301 21.667 -12 27l-17.5 19.5c-7 7.66699 -15.167 13 -24.5 16s-20.333 6.16699 -33 9.5s-26.834 5.5 -42.501 6.5s-33.167 1.5 -52.5 1.5v222
c76 0 139.5 -4 190.5 -12s96.333 -21.833 136 -41.5s70.334 -47.5 92.001 -83.5s37.834 -80.5 48.501 -133.5s16 -118.833 16 -197.5c0 -5.33301 -0.333008 -22 -1 -50s-0.833984 -50.667 -0.500977 -68s1.5 -40.5 3.5 -69.5s5.83301 -52.833 11.5 -71.5s13 -37.667 22 -57
s21.5 -33.833 37.5 -43.5s34.667 -14.5 56 -14.5v-287c-18.667 0 -35.167 -1.83301 -49.5 -5.5s-26.166 -8.33398 -35.499 -14.001s-17.166 -14.167 -23.499 -25.5s-11 -21.5 -14 -30.5s-5.16699 -21.833 -6.5 -38.5s-1.83301 -30.167 -1.5 -40.5
s0.666016 -25.666 0.999023 -45.999s0.5 -35.5 0.5 -45.5c0 -79.333 -3.66699 -147.666 -11 -204.999s-21.5 -111.833 -42.5 -163.5s-49.167 -93.334 -84.5 -125.001s-81.833 -56.667 -139.5 -75s-126.167 -27.5 -205.5 -27.5z" />
    <glyph glyph-name="asciitilde" unicode="~" horiz-adv-x="1028" 
d="M140 842c-0.666992 56 6.8291 106.167 22.4961 150.5s41.667 81.166 78 110.499s80.833 44 133.5 44c30.667 0 64.834 -7.16699 102.501 -21.5s72.834 -28.833 105.501 -43.5s58.334 -22 77.001 -22c24.667 0 37 23 37 69h181
c0.666992 -55.333 -6.83301 -105.5 -22.5 -150.5s-41.667 -82.333 -78 -112s-80.833 -44.5 -133.5 -44.5c-31.333 0 -66.666 7.33301 -105.999 22s-75.5 29.334 -108.5 44.001s-57.167 22 -72.5 22c-22.667 0 -34 -22.667 -34 -68h-182z" />
    <glyph glyph-name="uni00A0" unicode="&#xa0;" horiz-adv-x="410" 
 />
    <glyph glyph-name="exclamdown" unicode="&#xa1;" horiz-adv-x="524" 
d="M438 1305v-318h-323v318h323zM334 842l104 -1338h-343l123 1338h116z" />
    <glyph glyph-name="cent" unicode="&#xa2;" horiz-adv-x="965" 
d="M447 -263l-0.00195312 295.002c-101.333 8.66699 -186.666 46.667 -255.999 114s-104 151.666 -104 252.999v445c0 131.333 29.5 235 88.5 311s149.5 118 271.5 126v287h90v-287c119.333 -9.33301 207.833 -51.833 265.5 -127.5s86.5 -178.834 86.5 -309.501v-56h-332
l1 74c0.666992 50.667 -3.5 88.5 -12.5 113.5s-28.167 37.5 -57.5 37.5c-42.667 0 -64 -33 -64 -99v-508c0 -73.333 21.333 -110 64 -110c27.333 0 46 10 56 30s15 51.667 15 95c0 3.33301 -0.166992 8 -0.5 14s-0.666016 17 -0.999023 33s-0.5 35.333 -0.5 58h332v-127
c0 -100 -33.833 -183.5 -101.5 -250.5s-151.167 -105.833 -250.5 -116.5v-295h-90z" />
    <glyph glyph-name="sterling" unicode="&#xa3;" horiz-adv-x="1137" 
d="M84 0v185.999l121 59v480h-121v259h121v222c0 46.667 1.16699 89.334 3.5 128.001s7.33301 80.167 15 124.5s18 83.833 31 118.5s30.5 68.667 52.5 102s48 60.833 78 82.5s66.667 39.167 110 52.5s92 20 146 20c50.667 0 96.167 -5.5 136.5 -16.5s74.333 -25.333 102 -43
s51.5 -40.5 71.5 -68.5s35.5 -56 46.5 -84s19.667 -61.333 26 -100s10.5 -74 12.5 -106s3 -69 3 -111h-327c0 164.667 -23.667 247 -71 247s-71 -116 -71 -348v-220h245v-259h-245v-441h459v-284h-945z" />
    <glyph glyph-name="currency" unicode="&#xa4;" horiz-adv-x="1054" 
d="M335 897c0 -58.667 17.3291 -109.168 51.9961 -151.501s81.334 -63.5 140.001 -63.5c62.667 0 110.334 21 143.001 63s49 92.333 49 151c0 59.333 -16.167 109.833 -48.5 151.5s-80.166 62.5 -143.499 62.5s-111.166 -20.667 -143.499 -62s-48.5 -91.666 -48.5 -150.999z
M119.996 578.999l86 85.999c-42 64.667 -63 142 -63 232c0 88.667 21 165.334 63 230.001l-86 86l90 90l86 -86c63.333 42 140.333 63 231 63s167.667 -21 231 -63l86 86l90 -90l-87 -87c42.667 -64.667 64 -141 64 -229c0 -88.667 -21.333 -166 -64 -232l87 -86l-90 -90
l-86 86c-63.333 -42 -140.333 -63 -231 -63s-167.667 21 -231 63l-86 -86z" />
    <glyph glyph-name="yen" unicode="&#xa5;" horiz-adv-x="1095" 
d="M397 0v259h-195v199h195v102h-195v196h146l-146.5 535l-150.5 552h295l194 -901l193 901h294l-299 -1087h150v-196h-194v-102h194v-199h-194v-259h-287z" />
    <glyph glyph-name="brokenbar" unicode="&#xa6;" horiz-adv-x="441" 
d="M98 900v665h234v-665h-234zM98 -15v665h234v-665h-234z" />
    <glyph glyph-name="section" unicode="&#xa7;" horiz-adv-x="1028" 
d="M541 795c54.667 29.333 82 66.667 82 112c0 34 -35.333 81.333 -106 142l-43 35c-23.333 -14.667 -42.666 -34 -57.999 -58s-23 -49 -23 -75c0 -19.333 5.66699 -37.5 17 -54.5s22.666 -29.833 33.999 -38.5s28.833 -20.167 52.5 -34.5s38.5 -23.833 44.5 -28.5z
M623 339.001c0 32 -5.99707 61.3291 -17.9971 87.9961s-28 49.667 -48 69s-42.833 37.5 -68.5 54.5s-52.834 33.167 -81.501 48.5l-86.5 46.5c-29 15.667 -56.333 33.334 -82 53.001s-48.5 40.834 -68.5 63.501s-36 50.167 -48 82.5s-18 67.833 -18 106.5
c0 66.667 14.667 126.834 44 180.501s72.666 95.5 129.999 125.5c-116 74 -174 156.333 -174 247c0 58.667 10.5 111 31.5 157s49.833 83.333 86.5 112s79.167 50.5 127.5 65.5s101.166 22.5 158.499 22.5c107.333 0 195.5 -33.667 264.5 -101s116.167 -155.333 141.5 -264
l-220 -73c-50 130.667 -112 196 -186 196c-36 0 -64.167 -10.167 -84.5 -30.5s-30.5 -48.5 -30.5 -84.5c0 -23.333 7 -44.5 21 -63.5s28.833 -33.167 44.5 -42.5s37.167 -20.833 64.5 -34.5s46 -23.5 56 -29.5c46 -28 86.667 -55.5 122 -82.5s69.833 -58.333 103.5 -94
s59.667 -74.834 78 -117.501s27.5 -87 27.5 -133c0 -130 -49.667 -226.667 -149 -290c99.333 -86 149 -178.667 149 -278c0 -115.333 -37.5 -203.666 -112.5 -264.999s-171.5 -92 -289.5 -92c-108 0 -195.833 33.5 -263.5 100.5s-115.5 155.5 -143.5 265.5l221 73
c8 -22.667 17.333 -44.167 28 -64.5s23.5 -41.166 38.5 -62.499s33 -38.333 54 -51s42.833 -19 65.5 -19c36 0 64.167 10.167 84.5 30.5s30.5 48.5 30.5 84.5z" />
    <glyph glyph-name="dieresis" unicode="&#xa8;" horiz-adv-x="927" 
d="M569 1492v308h304v-308h-304zM116 1492v308h303v-308h-303z" />
    <glyph glyph-name="copyright" unicode="&#xa9;" horiz-adv-x="1619" 
d="M799 -15c-98.667 0 -192.5 19.8301 -281.5 59.4971s-165.167 92.834 -228.5 159.501s-113.5 145.167 -150.5 235.5s-55.5 184.833 -55.5 283.5c0 98 18.5 192.333 55.5 283s87.167 169.334 150.5 236.001s139.5 119.834 228.5 159.501s182.833 59.5 281.5 59.5
c132 0 253.167 -33.667 363.5 -101s196.833 -157.5 259.5 -270.5s94 -235.167 94 -366.5c0 -130.667 -31.333 -252.5 -94 -365.5s-149.167 -203.333 -259.5 -271s-231.5 -101.5 -363.5 -101.5zM799 162.997c73.333 0 142.333 15.5039 207 46.5039
s119.167 72.167 163.5 123.5s79.333 110.666 105 177.999s38.5 136.666 38.5 207.999s-12.833 140.666 -38.5 207.999s-60.667 126.666 -105 177.999s-98.833 92.5 -163.5 123.5s-133.667 46.5 -207 46.5c-97.333 0 -185.833 -26.333 -265.5 -79
s-141.167 -121.167 -184.5 -205.5s-65 -174.833 -65 -271.5s21.667 -187.167 65 -271.5s104.833 -152.833 184.5 -205.5s168.167 -79 265.5 -79zM896 614.001l209.999 0.000976562c0 -119.333 -24.667 -215 -74 -287s-125.666 -108 -228.999 -108
c-33.333 0 -63.666 3.33301 -90.999 10s-51 15.167 -71 25.5s-38 24.5 -54 42.5s-29.167 35.5 -39.5 52.5s-19.166 38.5 -26.499 64.5s-12.833 49.167 -16.5 69.5s-6.5 46 -8.5 77s-3.16699 56.667 -3.5 77s-0.5 46.5 -0.5 78.5c0 35.333 0.166992 63 0.5 83
s1.5 46.333 3.5 79s4.83301 59 8.5 79s9.16699 43.5 16.5 70.5s16.166 48.833 26.499 65.5s23.666 34.167 39.999 52.5s34.833 32.5 55.5 42.5s45.167 18.333 73.5 25s59.5 10 93.5 10c55.333 0 103 -9.83301 143 -29.5s71 -47.334 93 -83.001s37.833 -74.667 47.5 -117
s14.5 -89.833 14.5 -142.5h-214c0 18 -0.166992 32.333 -0.5 43s-1.83301 27 -4.5 49s-6.66699 39.5 -12 52.5s-13.5 25 -24.5 36s-24.5 16.5 -40.5 16.5c-44.667 0 -76.667 -22.667 -96 -68s-29 -128.666 -29 -249.999c0 -94.667 4.83301 -166.834 14.5 -216.501
s22.167 -81.334 37.5 -95.001s36.666 -20.5 63.999 -20.5c11.333 0 21.833 2 31.5 6s17.667 10.5 24 19.5s11.833 17.333 16.5 25s8.16699 18.834 10.5 33.501s4.33301 26 6 34s2.83398 20.5 3.50098 37.5s1 27.667 1 32v28.5z" />
    <glyph glyph-name="ordfeminine" unicode="&#xaa;" horiz-adv-x="906" 
d="M536 239v163.998l-38.5 -22.5c-6.33301 -3.66699 -19 -12 -38 -25s-32.833 -24.167 -41.5 -33.5s-17.167 -21.166 -25.5 -35.499s-12.5 -28.5 -12.5 -42.5c0 -20.667 4.66699 -37.667 14 -51s24 -20 44 -20s39 6.33301 57 19s31.667 28.334 41 47.001zM554 -0.00195312
l0.00390625 84.999c-21.333 -29.333 -49.166 -52.666 -83.499 -69.999s-69.833 -26 -106.5 -26c-56.667 0 -105.667 20.667 -147 62s-62 90.333 -62 147c0 38 8.16699 72.667 24.5 104s34 56.333 53 75s48.667 37.834 89 57.501s70.833 33.167 91.5 40.5
s54.667 18.333 102 33c9.33301 3.33301 16.333 5.66602 21 6.99902v86c0 83.333 -21 125 -63 125c-51.333 0 -77 -50.667 -77 -152h-208c1.33301 92.667 27.166 170.334 77.499 233.001s120.833 94 211.5 94c53.333 0 99.166 -9 137.499 -27s67.5 -42.167 87.5 -72.5
s35.667 -66.833 47 -109.5s17.666 -86.667 18.999 -132s1.66602 -94.333 0.999023 -147s-2.33398 -102.334 -5.00098 -149.001s-3 -94 -1 -142s7 -88.667 15 -122h-224z" />
    <glyph glyph-name="guillemotleft" unicode="&#xab;" horiz-adv-x="1054" 
d="M975 64l-448 512v128l448 512v-320l-256 -255l256 -257v-320zM527 64l-448 512v128l448 512v-320l-256 -255l256 -257v-320z" />
    <glyph glyph-name="logicalnot" unicode="&#xac;" horiz-adv-x="829" 
d="M136 453v223h547v-417h-158v194h-389z" />
    <glyph glyph-name="uni00AD" unicode="&#xad;" horiz-adv-x="804" 
d="M142 433v255h541v-255h-541z" />
    <glyph glyph-name="registered" unicode="&#xae;" horiz-adv-x="1619" 
d="M720 766c61.333 0 104.667 11.168 130 33.501s38 63.166 38 122.499c0 93.333 -37 140 -111 140h-57v-296zM534.001 251.001v946c-76.667 -50 -137.5 -117.833 -182.5 -203.5s-67.5 -177.167 -67.5 -274.5c0 -96.667 21.667 -187.167 65 -271.5
s104.833 -152.833 184.5 -205.5s168.167 -79 265.5 -79c102.667 0 195.667 29.333 279 88h-171l-129 390h-58v-390h-186zM799.001 -14.999c-98.667 0 -192.5 19.8301 -281.5 59.4971s-165.167 92.834 -228.5 159.501s-113.5 145.167 -150.5 235.5s-55.5 184.833 -55.5 283.5
c0 98 18.5 192.333 55.5 283s87.167 169.334 150.5 236.001s139.5 119.834 228.5 159.501s182.833 59.5 281.5 59.5c132 0 253.167 -33.667 363.5 -101s196.833 -157.5 259.5 -270.5s94 -235.167 94 -366.5c0 -130.667 -31.333 -252.5 -94 -365.5
s-149.167 -203.333 -259.5 -271s-231.5 -101.5 -363.5 -101.5zM1101 268.998c66 52 117.832 117.834 155.499 197.501s56.5 163.834 56.5 252.501c0 71.333 -12.833 140.666 -38.5 207.999s-60.667 126.666 -105 177.999s-98.833 92.5 -163.5 123.5s-133.667 46.5 -207 46.5
c-86.667 0 -167.667 -21.667 -243 -65h235c191.333 0 287 -97.333 287 -292c0 -106.667 -42 -185.334 -126 -236.001c6 -31.333 15.333 -66.666 28 -105.999s24.334 -72.5 35.001 -99.5l45.5 -110.5z" />
    <glyph glyph-name="macron" unicode="&#xaf;" horiz-adv-x="429" 
d="M-36 1457v193h507v-193h-507z" />
    <glyph glyph-name="degree" unicode="&#xb0;" horiz-adv-x="1095" 
d="M540 1255c56.667 0 100.833 19.498 132.5 58.498s47.5 87.167 47.5 144.5c0 58 -15.667 106.167 -47 144.5s-75.666 57.5 -132.999 57.5c-56.667 0 -100.834 -19.167 -132.501 -57.5s-47.5 -86.166 -47.5 -143.499s16 -105.666 48 -144.999s76 -59 132 -59zM539.999 1055
c-123.333 0 -221.168 36.6689 -293.501 110.002s-108.5 171.333 -108.5 294c0 123.333 36.333 221.166 109 293.499s170.334 108.5 293.001 108.5c123.333 0 221.5 -36.333 294.5 -109s109.5 -170.334 109.5 -293.001c0 -123.333 -36.333 -221.5 -109 -294.5
s-171 -109.5 -295 -109.5z" />
    <glyph glyph-name="plusminus" unicode="&#xb1;" horiz-adv-x="895" 
d="M330 389v194h-193v223h193v194h224v-194h193v-223h-193v-194h-224zM137 0v223h610v-223h-610z" />
    <glyph glyph-name="uni00B2" unicode="&#xb2;" horiz-adv-x="696" 
d="M617 1245c0 -29.333 -7.66895 -62.502 -23.002 -99.502s-36.666 -75.5 -63.999 -115.5s-53.166 -75.833 -77.499 -107.5l-83.5 -104.5l-62 -76h310v-159h-547v148c1.33301 1.33301 23.5 28.166 66.5 80.499l114 143.5c33 43.333 65.167 93.833 96.5 151.5
s47 103.834 47 138.501v13.5v16.5c0 3.33301 -0.166992 8.66602 -0.5 15.999s-1 13 -2 17s-2.16699 9.16699 -3.5 15.5s-3.33301 11.333 -6 15s-5.66699 7.33398 -9 11.001s-7.5 6.33398 -12.5 8.00098s-10.5 2.5 -16.5 2.5s-11.667 -1 -17 -3s-9.66602 -5 -12.999 -9
s-6.33301 -8.16699 -9 -12.5s-4.66699 -10 -6 -17l-3.5 -18c-1 -5 -1.66699 -11.5 -2 -19.5s-0.5 -14 -0.5 -18v-17.5v-14.5h-223c0 88 23.667 157.833 71 209.5s115 77.5 203 77.5c85.333 0 152.166 -24.167 200.499 -72.5s72.5 -115.166 72.5 -200.499z" />
    <glyph glyph-name="uni00B3" unicode="&#xb3;" horiz-adv-x="829" 
d="M136 935l222 -0.000976562v-14.5v-18c0 -3.66699 0.166992 -9.66699 0.5 -18s1 -14.833 2 -19.5l4 -18c1.66699 -7.33301 3.66699 -13 6 -17s5.33301 -8 9 -12s8 -7 13 -9s10.5 -3 16.5 -3c12 0 21.833 3.33301 29.5 10s12.834 16.5 15.501 29.5
s4.33398 23.833 5.00098 32.5s1 20 1 34v9c0 46 -9.5 76.833 -28.5 92.5s-52.833 23.5 -101.5 23.5v158c49.333 0 83.333 7.83301 102 23.5s28 46.167 28 91.5v9c0 14.667 -0.333008 26.334 -1 35.001s-2.33398 19.5 -5.00098 32.5s-7.83398 22.833 -15.501 29.5
s-17.5 10 -29.5 10c-6 0 -11.5 -1 -16.5 -3s-9.33301 -5.16699 -13 -9.5s-6.66699 -8.5 -9 -12.5s-4.33301 -9.66699 -6 -17l-4 -18c-1 -4.66699 -1.66699 -11.334 -2 -20.001s-0.5 -14.834 -0.5 -18.501v-17.5v-14h-222c0 88 23.5 157.833 70.5 209.5
s114.5 77.5 202.5 77.5c86 0 153.167 -24.167 201.5 -72.5s72.5 -115.166 72.5 -200.499c0 -94.667 -44 -159.667 -132 -195c88 -36 132 -100.667 132 -194c0 -85.333 -24.167 -152.166 -72.5 -200.499s-115.5 -72.5 -201.5 -72.5c-88 0 -155.5 25.667 -202.5 77
s-70.5 121.333 -70.5 210z" />
    <glyph glyph-name="acute" unicode="&#xb4;" horiz-adv-x="638" 
d="M113 1393l136 442h345l-277 -442h-204z" />
    <glyph glyph-name="paragraph" unicode="&#xb6;" horiz-adv-x="1020" 
d="M394 0v887.004c-108 2.66699 -196.833 34.667 -266.5 96s-104.5 144.666 -104.5 249.999c0 63.333 11 118.166 33 164.499s53 82.666 93 108.999s84.833 45.666 134.5 57.999s105.167 18.5 166.5 18.5h493v-1583h-209v887h-113v-887h-227z" />
    <glyph glyph-name="periodcentered" unicode="&#xb7;" horiz-adv-x="520" 
d="M99 679v315h323v-315h-323z" />
    <glyph glyph-name="cedilla" unicode="&#xb8;" horiz-adv-x="585" 
d="M132 -561l0.000976562 161.004c2 0 9.16699 -0.166992 21.5 -0.5s24.333 -0.5 36 -0.5s25.667 0.166992 42 0.5s31.166 1.5 44.499 3.5s26 4.33301 38 7s21.5 6.83398 28.5 12.501s10.5 12.167 10.5 19.5c0 6.66699 -1.33301 13.167 -4 19.5s-6.83398 12.333 -12.501 18
l-16.5 16c-5.33301 5 -12.666 10 -21.999 15l-23 12.5c-6 3.33301 -14.5 7.16602 -25.5 11.499s-18.667 7.5 -23 9.5s-11.5 4.66699 -21.5 8s-15.667 5.33301 -17 6v242h171v-129c147.333 -69.333 221 -147 221 -233c0 -27.333 -6.16699 -51.833 -18.5 -73.5
s-27.5 -39.334 -45.5 -53.001s-41.5 -25.334 -70.5 -35.001s-55.333 -16.834 -79 -21.501s-52.667 -8.33398 -87 -11.001s-60.5 -4.16699 -78.5 -4.5s-41 -0.5 -69 -0.5z" />
    <glyph glyph-name="uni00B9" unicode="&#xb9;" horiz-adv-x="562" 
d="M198 648l-0.000976562 583h-129v153c116.667 58.667 205.334 125 266.001 199h86v-935h-223z" />
    <glyph glyph-name="ordmasculine" unicode="&#xba;" horiz-adv-x="965" 
d="M594 471l0.00195312 239c0 4.66699 0.166992 15.667 0.5 33s0.333008 30 0 38l-1.5 36.5c-0.666992 16.333 -2.16699 29 -4.5 38l-8.5 33.5c-3.33301 13.333 -8 23.666 -14 30.999s-12.833 14.833 -20.5 22.5s-17.334 13.167 -29.001 16.5s-24.5 5 -38.5 5
c-19.333 0 -36.333 -3.33301 -51 -10s-26.167 -17.167 -34.5 -31.5s-15 -28 -20 -41s-8.5 -30.333 -10.5 -52s-3.16699 -38.667 -3.5 -51s-0.5 -29.5 -0.5 -51.5v-6v-5v-6v-239v-17v-43.5c0 -10.333 0.666992 -25 2 -44s3.5 -34.333 6.5 -46s7.33301 -24.834 13 -39.501
s12.667 -26.167 21 -34.5s19.166 -15.5 32.499 -21.5s28.333 -9 45 -9c14 0 26.833 1.66699 38.5 5s21.334 8.83301 29.001 16.5s14.5 15.167 20.5 22.5s10.667 17.833 14 31.5s6.16602 24.834 8.49902 33.501s3.83301 21.334 4.5 38.001l1.5 37
c0.333008 8 0.333008 20.667 0 38s-0.5 28.333 -0.5 33zM114.002 430l-0.000976562 322c0 68 5.83301 127.667 17.5 179s31.167 97.666 58.5 138.999s65.5 72.666 114.5 93.999s108.5 32 178.5 32c65.333 0 122.333 -11.667 171 -35s87.167 -55.666 115.5 -96.999
s49.166 -88 62.499 -140s20 -109.333 20 -172v-322c0 -63.333 -6.66699 -121.166 -20 -173.499s-34.166 -99.166 -62.499 -140.499s-66.666 -73.5 -114.999 -96.5s-105.5 -34.5 -171.5 -34.5c-70 0 -129.5 10.667 -178.5 32s-87.167 52.666 -114.5 93.999
s-46.833 87.833 -58.5 139.5s-17.5 111.5 -17.5 179.5z" />
    <glyph glyph-name="guillemotright" unicode="&#xbb;" horiz-adv-x="1054" 
d="M79 64v320l256 257l-256 255v320l448 -512v-128zM527 64v320l256 257l-256 255v320l448 -512v-128z" />
    <glyph glyph-name="onequarter" unicode="&#xbc;" horiz-adv-x="1695" 
d="M1167 402h93v184zM936 244v148l351 593h195v-583h130v-158h-130v-259h-222v259h-324zM424 0l577 1835h180l-578 -1835h-179zM198 648l-0.000976562 583h-129v153c116.667 58.667 205.334 125 266.001 199h86v-935h-223z" />
    <glyph glyph-name="onehalf" unicode="&#xbd;" horiz-adv-x="1694" 
d="M1615 647c0 -29.333 -7.66895 -62.502 -23.002 -99.502s-36.666 -75.5 -63.999 -115.5s-53.166 -75.833 -77.499 -107.5l-83.5 -104.5l-62 -76h310v-159h-547v148c1.33301 1.33301 23.5 28.166 66.5 80.499l114 143.5c33 43.333 65.167 93.833 96.5 151.5
s47 103.834 47 138.501v13.5v16.5c0 3.33301 -0.166992 8.66602 -0.5 15.999s-1 13 -2 17s-2.16699 9.16699 -3.5 15.5s-3.33301 11.333 -6 15s-5.66699 7.33398 -9 11.001s-7.5 6.33398 -12.5 8.00098s-10.5 2.5 -16.5 2.5s-11.667 -1 -17 -3s-9.66602 -5 -12.999 -9
s-6.33301 -8.16699 -9 -12.5s-4.66699 -10 -6 -17l-3.5 -18c-1 -5 -1.66699 -11.5 -2 -19.5s-0.5 -14 -0.5 -18v-17.5v-14.5h-223c0 88 23.667 157.833 71 209.5s115 77.5 203 77.5c85.333 0 152.166 -24.167 200.499 -72.5s72.5 -115.166 72.5 -200.499z
M423.998 -0.00195312l577 1835h180l-578 -1835h-179zM197.998 647.998l-0.000976562 583h-129v153c116.667 58.667 205.334 125 266.001 199h86v-935h-223z" />
    <glyph glyph-name="threequarters" unicode="&#xbe;" horiz-adv-x="1895" 
d="M587 0l577 1835h180l-578 -1835h-179zM1300 402h93v184zM1069 244v148l351 593h195v-583h130v-158h-130v-259h-222v259h-324zM136 935l222 -0.000976562v-14.5v-18c0 -3.66699 0.166992 -9.66699 0.5 -18s1 -14.833 2 -19.5l4 -18c1.66699 -7.33301 3.66699 -13 6 -17
s5.33301 -8 9 -12s8 -7 13 -9s10.5 -3 16.5 -3c12 0 21.833 3.33301 29.5 10s12.834 16.5 15.501 29.5s4.33398 23.833 5.00098 32.5s1 20 1 34v9c0 46 -9.5 76.833 -28.5 92.5s-52.833 23.5 -101.5 23.5v158c49.333 0 83.333 7.83301 102 23.5s28 46.167 28 91.5v9
c0 14.667 -0.333008 26.334 -1 35.001s-2.33398 19.5 -5.00098 32.5s-7.83398 22.833 -15.501 29.5s-17.5 10 -29.5 10c-6 0 -11.5 -1 -16.5 -3s-9.33301 -5.16699 -13 -9.5s-6.66699 -8.5 -9 -12.5s-4.33301 -9.66699 -6 -17l-4 -18
c-1 -4.66699 -1.66699 -11.334 -2 -20.001s-0.5 -14.834 -0.5 -18.501v-17.5v-14h-222c0 88 23.5 157.833 70.5 209.5s114.5 77.5 202.5 77.5c86 0 153.167 -24.167 201.5 -72.5s72.5 -115.166 72.5 -200.499c0 -94.667 -44 -159.667 -132 -195
c88 -36 132 -100.667 132 -194c0 -85.333 -24.167 -152.166 -72.5 -200.499s-115.5 -72.5 -201.5 -72.5c-88 0 -155.5 25.667 -202.5 77s-70.5 121.333 -70.5 210z" />
    <glyph glyph-name="questiondown" unicode="&#xbf;" horiz-adv-x="1182" 
d="M825 1305v-324h-334v324h334zM825 825v-387.996c-44 -30 -85.833 -63.833 -125.5 -101.5s-76.834 -79.167 -111.501 -124.5s-62.167 -94.833 -82.5 -148.5s-30.5 -106.834 -30.5 -159.501c0 -46 10.833 -80.667 32.5 -104s52.834 -35 93.501 -35
c37.333 0 65.5 15.167 84.5 45.5s28.5 68.166 28.5 113.499c0 41.333 -6.33301 82.666 -19 123.999l314 60c19.333 -74 29 -144 29 -210c0 -128 -36.333 -231.167 -109 -309.5s-182 -117.5 -328 -117.5c-147.333 0 -261.333 39.167 -342 117.5s-121 190.166 -121 335.499
c0 129.333 31.167 249.333 93.5 360s148.833 198 259.5 262v280h334z" />
    <glyph glyph-name="Agrave" unicode="&#xc0;" horiz-adv-x="1135" 
d="M465 609h186l-91 668zM9 0l389 1800h322l388 -1800h-359l-74 385h-235l-70 -385h-361zM465 1937l-277 442h346l136 -442h-205z" />
    <glyph glyph-name="Aacute" unicode="&#xc1;" horiz-adv-x="1135" 
d="M465 609h186l-91 668zM9 0l389 1800h322l388 -1800h-359l-74 385h-235l-70 -385h-361zM465 1937l136 442h345l-277 -442h-204z" />
    <glyph glyph-name="Acircumflex" unicode="&#xc2;" horiz-adv-x="1135" 
d="M465 609h186l-91 668zM9 0l389 1800h322l388 -1800h-359l-74 385h-235l-70 -385h-361zM219 1937l201 406h290l206 -406h-275l-75 202l-73 -202h-274z" />
    <glyph glyph-name="Atilde" unicode="&#xc3;" horiz-adv-x="1135" 
d="M465 609h186l-91 668zM9 0l389 1800h322l388 -1800h-359l-74 385h-235l-70 -385h-361zM396 1948h-167.001c0 34 1.16699 64 3.5 90s7.5 52.667 15.5 80s18.5 50 31.5 68s30.833 32.667 53.5 44s49.667 17 81 17c48.667 0 107.167 -9.66699 175.5 -29
s110.166 -29 125.499 -29c10.667 0 18.834 2.5 24.501 7.5s8.83398 10 9.50098 15s1 12.833 1 23.5h155c0 -198.667 -52 -298 -156 -298c-33.333 0 -84.5 12.167 -153.5 36.5s-119.167 36.5 -150.5 36.5c-10 0 -18.333 -1.5 -25 -4.5s-11.5 -5.83301 -14.5 -8.5
s-5.33301 -8 -7 -16s-2.5 -13 -2.5 -15v-18z" />
    <glyph glyph-name="Adieresis" unicode="&#xc4;" horiz-adv-x="1135" 
d="M465 609h186l-91 668zM9 0l389 1800h322l388 -1800h-359l-74 385h-235l-70 -385h-361zM642 1937v308h304v-308h-304zM189 1937v308h303v-308h-303z" />
    <glyph glyph-name="Aring" unicode="&#xc5;" horiz-adv-x="1135" 
d="M465 609h186l-91 668zM9 0l389 1800h322l388 -1800h-359l-74 385h-235l-70 -385h-361zM335 2088c0 72.667 23.833 130.667 71.5 174s108.167 65 181.5 65s133.833 -21.667 181.5 -65s71.5 -101.333 71.5 -174s-23.833 -130.667 -71.5 -174s-108.167 -65 -181.5 -65
s-133.833 21.667 -181.5 65s-71.5 101.333 -71.5 174zM588 1970c26 0 45.502 12.332 58.502 36.999s19.5 51.334 19.5 80.001s-6.5 55.667 -19.5 81s-32.5 38 -58.5 38c-26.667 0 -46.834 -12.333 -60.501 -37s-20.5 -51.334 -20.5 -80c0 -30 6.66699 -57.333 20 -82
s33.666 -37 60.999 -37z" />
    <glyph glyph-name="AE" unicode="&#xc6;" horiz-adv-x="1609" 
d="M643 609h211v574zM44 0l773 1800h761v-250h-387v-490h274v-256h-274v-554h387v-250h-724v385h-284l-142 -385h-384z" />
    <glyph glyph-name="Ccedilla" unicode="&#xc7;" horiz-adv-x="1174" 
d="M84 601l0.00292969 595.999c0 425.333 174 638 522 638c73.333 0 138.5 -9.83301 195.5 -29.5s104.833 -46.834 143.5 -81.501s70.5 -77.334 95.5 -128.001s43 -105.667 54 -165s16.5 -124.666 16.5 -195.999v-155h-358v166c0 32.667 -0.666992 60.834 -2 84.501
s-4.83301 50.667 -10.5 81s-13.334 55 -23.001 74s-24 35.167 -43 48.5s-41.833 20 -68.5 20c-105.333 0 -158 -88.667 -158 -266v-777c0 -176.667 52.667 -265 158 -265c31.333 0 57.666 9 78.999 27s36.666 43.5 45.999 76.5s15.666 65.333 18.999 97s5 67.834 5 108.501
v185h356v-152c-1.33301 -68.667 -7 -132 -17 -190s-27 -114.333 -51 -169s-54.5 -100.834 -91.5 -138.501s-84.833 -68 -143.5 -91s-126 -34.5 -202 -34.5c-78 0 -147.167 11.167 -207.5 33.5s-110 52.333 -149 90s-71.167 84 -96.5 139s-43.166 112.833 -53.499 173.5
s-15.5 127.334 -15.5 200.001zM456.003 -577.001l0.000976562 161.004c2 0 9.16699 -0.166992 21.5 -0.5s24.333 -0.5 36 -0.5s25.667 0.166992 42 0.5s31.166 1.5 44.499 3.5s26 4.33301 38 7s21.5 6.83398 28.5 12.501s10.5 12.167 10.5 19.5
c0 6.66699 -1.33301 13.167 -4 19.5s-6.83398 12.333 -12.501 18l-16.5 16c-5.33301 5 -12.666 10 -21.999 15l-23 12.5c-6 3.33301 -14.5 7.16602 -25.5 11.499s-18.667 7.5 -23 9.5s-11.5 4.66699 -21.5 8s-15.667 5.33301 -17 6v242h171v-129
c147.333 -69.333 221 -147 221 -233c0 -27.333 -6.16699 -51.833 -18.5 -73.5s-27.5 -39.334 -45.5 -53.001s-41.5 -25.334 -70.5 -35.001s-55.333 -16.834 -79 -21.501s-52.667 -8.33398 -87 -11.001s-60.5 -4.16699 -78.5 -4.5s-41 -0.5 -69 -0.5z" />
    <glyph glyph-name="Egrave" unicode="&#xc8;" horiz-adv-x="889" 
d="M107 0v1800h751v-250h-387v-490h274v-256h-274v-554h387v-250h-751zM380 1937l-277 442h346l136 -442h-205z" />
    <glyph glyph-name="Eacute" unicode="&#xc9;" horiz-adv-x="889" 
d="M107 0v1800h751v-250h-387v-490h274v-256h-274v-554h387v-250h-751zM381 1937l136 442h345l-277 -442h-204z" />
    <glyph glyph-name="Ecircumflex" unicode="&#xca;" horiz-adv-x="889" 
d="M107 0v1800h751v-250h-387v-490h274v-256h-274v-554h387v-250h-751zM134 1937l201 406h290l206 -406h-275l-75 202l-73 -202h-274z" />
    <glyph glyph-name="Edieresis" unicode="&#xcb;" horiz-adv-x="889" 
d="M107 0v1800h751v-250h-387v-490h274v-256h-274v-554h387v-250h-751zM557 1937v308h304v-308h-304zM104 1937v308h303v-308h-303z" />
    <glyph glyph-name="Igrave" unicode="&#xcc;" horiz-adv-x="578" 
d="M107 0v1800h364v-1800h-364zM187 1937l-277 442h346l136 -442h-205z" />
    <glyph glyph-name="Iacute" unicode="&#xcd;" horiz-adv-x="578" 
d="M107 0v1800h364v-1800h-364zM187 1937l136 442h345l-277 -442h-204z" />
    <glyph glyph-name="Icircumflex" unicode="&#xce;" horiz-adv-x="578" 
d="M107 0v1800h364v-1800h-364zM-59 1937l201 406h290l206 -406h-275l-75 202l-73 -202h-274z" />
    <glyph glyph-name="Idieresis" unicode="&#xcf;" horiz-adv-x="578" 
d="M107 0v1800h364v-1800h-364zM363 1937v308h304v-308h-304zM-90 1937v308h303v-308h-303z" />
    <glyph glyph-name="Eth" unicode="&#xd0;" horiz-adv-x="1156" 
d="M461 255h15.001c33.333 0 60 0.666992 80 2s39.667 4 59 8s34 9.5 44 16.5s19 17.167 27 30.5s13.333 29 16 47s4 40.667 4 68v969c0 60 -17.833 99.5 -53.5 118.5s-95.834 28.833 -180.501 29.5h-11v-532h124v-183h-124v-574zM97.001 0v829.002h-92v183h92v788h376
c120 0 218.833 -10.833 296.5 -32.5s138.667 -57.334 183 -107.001s75 -109.167 92 -178.5s25.5 -157.666 25.5 -264.999v-590c0 -64 -2 -119.833 -6 -167.5s-11.5 -94.334 -22.5 -140.001s-26 -84.334 -45 -116.001s-43.5 -61.167 -73.5 -88.5s-66.167 -49 -108.5 -65
s-92 -28.333 -149 -37s-122.5 -13 -196.5 -13h-372z" />
    <glyph glyph-name="Ntilde" unicode="&#xd1;" horiz-adv-x="1173" 
d="M107 0v1801h262l395 -942v942h302v-1801h-252l-394 999v-999h-313zM416 1948h-167.001c0 34 1.16699 64 3.5 90s7.5 52.667 15.5 80s18.5 50 31.5 68s30.833 32.667 53.5 44s49.667 17 81 17c48.667 0 107.167 -9.66699 175.5 -29s110.166 -29 125.499 -29
c10.667 0 18.834 2.5 24.501 7.5s8.83398 10 9.50098 15s1 12.833 1 23.5h155c0 -198.667 -52 -298 -156 -298c-33.333 0 -84.5 12.167 -153.5 36.5s-119.167 36.5 -150.5 36.5c-10 0 -18.333 -1.5 -25 -4.5s-11.5 -5.83301 -14.5 -8.5s-5.33301 -8 -7 -16
s-2.5 -13 -2.5 -15v-18z" />
    <glyph glyph-name="Ograve" unicode="&#xd2;" horiz-adv-x="1221" 
d="M84 592l0.00292969 604.999c0 425.333 175.333 638 526 638c351.333 0 527 -212.667 527 -638v-596c0 -72 -5.33301 -138.5 -16 -199.5s-28.834 -118.833 -54.501 -173.5s-58.334 -101.167 -98.001 -139.5s-89.834 -68.5 -150.501 -90.5s-130 -33 -208 -33
c-77.333 0 -146.333 10.833 -207 32.5s-110.667 51 -150 88s-71.833 82.333 -97.5 136s-44 110.834 -55 171.501s-16.5 127 -16.5 199zM773.003 509.999l0.00195312 778c0 177.333 -54.333 266 -163 266c-32.667 0 -60.334 -8.16699 -83.001 -24.5
s-39.334 -38.666 -50.001 -66.999s-18.167 -56.333 -22.5 -84s-6.5 -57.834 -6.5 -90.501v-778c0 -176.667 54 -265 162 -265c108.667 0 163 88.333 163 265zM508.005 1937l-277 442h346l136 -442h-205z" />
    <glyph glyph-name="Oacute" unicode="&#xd3;" horiz-adv-x="1221" 
d="M84 592l0.00292969 604.999c0 425.333 175.333 638 526 638c351.333 0 527 -212.667 527 -638v-596c0 -72 -5.33301 -138.5 -16 -199.5s-28.834 -118.833 -54.501 -173.5s-58.334 -101.167 -98.001 -139.5s-89.834 -68.5 -150.501 -90.5s-130 -33 -208 -33
c-77.333 0 -146.333 10.833 -207 32.5s-110.667 51 -150 88s-71.833 82.333 -97.5 136s-44 110.834 -55 171.501s-16.5 127 -16.5 199zM773.003 509.999l0.00195312 778c0 177.333 -54.333 266 -163 266c-32.667 0 -60.334 -8.16699 -83.001 -24.5
s-39.334 -38.666 -50.001 -66.999s-18.167 -56.333 -22.5 -84s-6.5 -57.834 -6.5 -90.501v-778c0 -176.667 54 -265 162 -265c108.667 0 163 88.333 163 265zM509.005 1937l136 442h345l-277 -442h-204z" />
    <glyph glyph-name="Ocircumflex" unicode="&#xd4;" horiz-adv-x="1221" 
d="M84 592l0.00292969 604.999c0 425.333 175.333 638 526 638c351.333 0 527 -212.667 527 -638v-596c0 -72 -5.33301 -138.5 -16 -199.5s-28.834 -118.833 -54.501 -173.5s-58.334 -101.167 -98.001 -139.5s-89.834 -68.5 -150.501 -90.5s-130 -33 -208 -33
c-77.333 0 -146.333 10.833 -207 32.5s-110.667 51 -150 88s-71.833 82.333 -97.5 136s-44 110.834 -55 171.501s-16.5 127 -16.5 199zM773.003 509.999l0.00195312 778c0 177.333 -54.333 266 -163 266c-32.667 0 -60.334 -8.16699 -83.001 -24.5
s-39.334 -38.666 -50.001 -66.999s-18.167 -56.333 -22.5 -84s-6.5 -57.834 -6.5 -90.501v-778c0 -176.667 54 -265 162 -265c108.667 0 163 88.333 163 265zM262.005 1937l201 406h290l206 -406h-275l-75 202l-73 -202h-274z" />
    <glyph glyph-name="Otilde" unicode="&#xd5;" horiz-adv-x="1221" 
d="M84 592l0.00292969 604.999c0 425.333 175.333 638 526 638c351.333 0 527 -212.667 527 -638v-596c0 -72 -5.33301 -138.5 -16 -199.5s-28.834 -118.833 -54.501 -173.5s-58.334 -101.167 -98.001 -139.5s-89.834 -68.5 -150.501 -90.5s-130 -33 -208 -33
c-77.333 0 -146.333 10.833 -207 32.5s-110.667 51 -150 88s-71.833 82.333 -97.5 136s-44 110.834 -55 171.501s-16.5 127 -16.5 199zM773.003 509.999l0.00195312 778c0 177.333 -54.333 266 -163 266c-32.667 0 -60.334 -8.16699 -83.001 -24.5
s-39.334 -38.666 -50.001 -66.999s-18.167 -56.333 -22.5 -84s-6.5 -57.834 -6.5 -90.501v-778c0 -176.667 54 -265 162 -265c108.667 0 163 88.333 163 265zM440.005 1948h-167.001c0 34 1.16699 64 3.5 90s7.5 52.667 15.5 80s18.5 50 31.5 68s30.833 32.667 53.5 44
s49.667 17 81 17c48.667 0 107.167 -9.66699 175.5 -29s110.166 -29 125.499 -29c10.667 0 18.834 2.5 24.501 7.5s8.83398 10 9.50098 15s1 12.833 1 23.5h155c0 -198.667 -52 -298 -156 -298c-33.333 0 -84.5 12.167 -153.5 36.5s-119.167 36.5 -150.5 36.5
c-10 0 -18.333 -1.5 -25 -4.5s-11.5 -5.83301 -14.5 -8.5s-5.33301 -8 -7 -16s-2.5 -13 -2.5 -15v-18z" />
    <glyph glyph-name="Odieresis" unicode="&#xd6;" horiz-adv-x="1221" 
d="M84 592l0.00292969 604.999c0 425.333 175.333 638 526 638c351.333 0 527 -212.667 527 -638v-596c0 -72 -5.33301 -138.5 -16 -199.5s-28.834 -118.833 -54.501 -173.5s-58.334 -101.167 -98.001 -139.5s-89.834 -68.5 -150.501 -90.5s-130 -33 -208 -33
c-77.333 0 -146.333 10.833 -207 32.5s-110.667 51 -150 88s-71.833 82.333 -97.5 136s-44 110.834 -55 171.501s-16.5 127 -16.5 199zM773.003 509.999l0.00195312 778c0 177.333 -54.333 266 -163 266c-32.667 0 -60.334 -8.16699 -83.001 -24.5
s-39.334 -38.666 -50.001 -66.999s-18.167 -56.333 -22.5 -84s-6.5 -57.834 -6.5 -90.501v-778c0 -176.667 54 -265 162 -265c108.667 0 163 88.333 163 265zM685.005 1937v308h304v-308h-304zM232.005 1937v308h303v-308h-303z" />
    <glyph glyph-name="multiply" unicode="&#xd7;" horiz-adv-x="829" 
d="M65 468l194 194l-194 194l150 151l194 -195l195 195l149 -151l-194 -194l194 -194l-149 -150l-195 195l-194 -195z" />
    <glyph glyph-name="Oslash" unicode="&#xd8;" horiz-adv-x="1221" 
d="M773 501l-0.996094 787c0 32.667 -2.16699 62.834 -6.5 90.501s-11.833 55.667 -22.5 84s-27.334 50.666 -50.001 66.999s-50.334 24.5 -83.001 24.5s-60.334 -8.16699 -83.001 -24.5s-39.334 -38.666 -50.001 -66.999s-18.167 -56.333 -22.5 -84
s-6.5 -57.834 -6.5 -90.501v-787c0 -176.667 54.333 -265 163 -265c108 0 162 88.333 162 265zM258.004 -250l76.0029 277c-166.667 92.667 -250 281 -250 565v605c0 425.333 175.333 638 526 638c79.333 0 150 -11.333 212 -34l73 266l97 -20l-80 -290
c150 -98 225 -284.667 225 -560v-596c0 -72 -5.33301 -138.5 -16 -199.5s-28.834 -118.833 -54.501 -173.5s-58.334 -101.167 -98.001 -139.5s-89.834 -68.5 -150.501 -90.5s-130 -33 -208 -33c-67.333 0 -129 8.33301 -185 25l-71 -260z" />
    <glyph glyph-name="Ugrave" unicode="&#xd9;" 
d="M99 669l-0.0117188 1131h364v-1120c0 -64 0.333008 -110.5 1 -139.5s2.33398 -64.333 5.00098 -106s7.33398 -70.834 14.001 -87.501s15.834 -34.667 27.501 -54s26.834 -32 45.501 -38s41.334 -9 68.001 -9s49.334 3 68.001 9s33.834 18.5 45.501 37.5
s20.834 36.833 27.501 53.5s11.334 45.5 14.001 86.5s4.33398 75.667 5.00098 104s1 74.166 1 137.499v6v1120h364v-1131c0 -57.333 -1.66699 -109.333 -5 -156s-9.66602 -95 -18.999 -145s-22 -94.167 -38 -132.5s-37.333 -75 -64 -110s-58.167 -63.833 -94.5 -86.5
s-80.166 -40.667 -131.499 -54s-109 -20 -173 -20s-121.667 6.66699 -173 20s-95 31.333 -131 54s-67.333 51.5 -94 86.5s-48 71.667 -64 110s-28.833 82.5 -38.5 132.5s-16.167 98.333 -19.5 145s-5 98.667 -5 156zM520.988 1937l-277 442h346l136 -442h-205z" />
    <glyph glyph-name="Uacute" unicode="&#xda;" 
d="M99 669l-0.0117188 1131h364v-1120c0 -64 0.333008 -110.5 1 -139.5s2.33398 -64.333 5.00098 -106s7.33398 -70.834 14.001 -87.501s15.834 -34.667 27.501 -54s26.834 -32 45.501 -38s41.334 -9 68.001 -9s49.334 3 68.001 9s33.834 18.5 45.501 37.5
s20.834 36.833 27.501 53.5s11.334 45.5 14.001 86.5s4.33398 75.667 5.00098 104s1 74.166 1 137.499v6v1120h364v-1131c0 -57.333 -1.66699 -109.333 -5 -156s-9.66602 -95 -18.999 -145s-22 -94.167 -38 -132.5s-37.333 -75 -64 -110s-58.167 -63.833 -94.5 -86.5
s-80.166 -40.667 -131.499 -54s-109 -20 -173 -20s-121.667 6.66699 -173 20s-95 31.333 -131 54s-67.333 51.5 -94 86.5s-48 71.667 -64 110s-28.833 82.5 -38.5 132.5s-16.167 98.333 -19.5 145s-5 98.667 -5 156zM521.988 1937l136 442h345l-277 -442h-204z" />
    <glyph glyph-name="Ucircumflex" unicode="&#xdb;" 
d="M99 669l-0.0117188 1131h364v-1120c0 -64 0.333008 -110.5 1 -139.5s2.33398 -64.333 5.00098 -106s7.33398 -70.834 14.001 -87.501s15.834 -34.667 27.501 -54s26.834 -32 45.501 -38s41.334 -9 68.001 -9s49.334 3 68.001 9s33.834 18.5 45.501 37.5
s20.834 36.833 27.501 53.5s11.334 45.5 14.001 86.5s4.33398 75.667 5.00098 104s1 74.166 1 137.499v6v1120h364v-1131c0 -57.333 -1.66699 -109.333 -5 -156s-9.66602 -95 -18.999 -145s-22 -94.167 -38 -132.5s-37.333 -75 -64 -110s-58.167 -63.833 -94.5 -86.5
s-80.166 -40.667 -131.499 -54s-109 -20 -173 -20s-121.667 6.66699 -173 20s-95 31.333 -131 54s-67.333 51.5 -94 86.5s-48 71.667 -64 110s-28.833 82.5 -38.5 132.5s-16.167 98.333 -19.5 145s-5 98.667 -5 156zM274.988 1937l201 406h290l206 -406h-275l-75 202
l-73 -202h-274z" />
    <glyph glyph-name="Udieresis" unicode="&#xdc;" 
d="M99 669l-0.0117188 1131h364v-1120c0 -64 0.333008 -110.5 1 -139.5s2.33398 -64.333 5.00098 -106s7.33398 -70.834 14.001 -87.501s15.834 -34.667 27.501 -54s26.834 -32 45.501 -38s41.334 -9 68.001 -9s49.334 3 68.001 9s33.834 18.5 45.501 37.5
s20.834 36.833 27.501 53.5s11.334 45.5 14.001 86.5s4.33398 75.667 5.00098 104s1 74.166 1 137.499v6v1120h364v-1131c0 -57.333 -1.66699 -109.333 -5 -156s-9.66602 -95 -18.999 -145s-22 -94.167 -38 -132.5s-37.333 -75 -64 -110s-58.167 -63.833 -94.5 -86.5
s-80.166 -40.667 -131.499 -54s-109 -20 -173 -20s-121.667 6.66699 -173 20s-95 31.333 -131 54s-67.333 51.5 -94 86.5s-48 71.667 -64 110s-28.833 82.5 -38.5 132.5s-16.167 98.333 -19.5 145s-5 98.667 -5 156zM698.988 1937v308h304v-308h-304zM245.988 1937v308h303
v-308h-303z" />
    <glyph glyph-name="Yacute" unicode="&#xdd;" horiz-adv-x="1035" 
d="M337 0v595l-338 1205h343l168 -791l93 395.5l92 395.5h333l-339 -1205v-595h-352zM415 1937l136 442h345l-277 -442h-204z" />
    <glyph glyph-name="Thorn" unicode="&#xde;" horiz-adv-x="1020" 
d="M481 791c15.333 0 29.334 0.666992 42.001 2s24 4.16602 34 8.49902s18.667 8.33301 26 12s13.833 9.83398 19.5 18.501l14 22c3.66699 6 6.83398 15.667 9.50098 29s4.66699 24.166 6 32.499s2.33301 21.5 3 39.5s1 32.333 1 43v50v13
c0 22.667 -0.166992 39.834 -0.5 51.501s-1 27 -2 46s-3 33.333 -6 43s-6.83301 21.167 -11.5 34.5s-10.834 23.333 -18.501 30s-16.834 13.5 -27.501 20.5s-23.5 11.833 -38.5 14.5s-31.833 4 -50.5 4v-514zM97.001 0l-0.000976562 1800h383v-236h52
c156.667 0 270.667 -43.667 342 -131s107 -213.666 107 -378.999c0 -80 -7.66699 -149.833 -23 -209.5s-36.666 -109 -63.999 -148s-62.5 -70.5 -105.5 -94.5s-89.5 -41 -139.5 -51s-108 -15.667 -174 -17v-534h-378z" />
    <glyph glyph-name="germandbls" unicode="&#xdf;" horiz-adv-x="1193" 
d="M99 0l0.000976562 1358c0 52 5.66699 101.167 17 147.5s29.166 89.666 53.499 129.999s54.166 75.166 89.499 104.499s78.666 52.333 129.999 69s108.333 25 171 25c152 0 266.833 -42.333 344.5 -127s116.5 -204 116.5 -358c0 -183.333 -85 -307.333 -255 -372
c48.667 -13.333 93.167 -32.333 133.5 -57s74 -52.667 101 -84s49.833 -66 68.5 -104s32.167 -76.667 40.5 -116s12.5 -79.666 12.5 -120.999c0 -179.333 -48.667 -312.5 -146 -399.5s-246.666 -130.5 -447.999 -130.5v250c50 0 90.833 6.16699 122.5 18.5
s55.834 32.666 72.501 60.999s28 60.833 34 97.5s9 84.334 9 143.001c0 85.333 -20.167 153.166 -60.5 203.499s-99.166 75.833 -176.499 76.5v253c29.333 0 55 8.83301 77 26.5s38.667 41 50 70s19.666 58.833 24.999 89.5s8 62.334 8 95.001
c0 21.333 -0.333008 39.833 -1 55.5s-2 33.5 -4 53.5s-5.5 36.667 -10.5 50s-11.333 26.333 -19 39s-17.667 22.167 -30 28.5s-26.833 9.5 -43.5 9.5c-18 0 -33.833 -3 -47.5 -9s-24.667 -15 -33 -27s-15 -24.167 -20 -36.5s-8.5 -28.333 -10.5 -48
s-3.33301 -36.167 -4 -49.5s-1 -30.666 -1 -51.999v-1363h-366z" />
    <glyph glyph-name="agrave" unicode="&#xe0;" horiz-adv-x="976" 
d="M552 295v321c-110.667 -89.333 -166 -187.333 -166 -294c0 -26.667 5.16699 -49.5 15.5 -68.5s27.833 -28.5 52.5 -28.5c14 0 27.833 4.5 41.5 13.5s23.5 16.833 29.5 23.5s15 17.667 27 33zM620 0l-32.9971 134.996c-19.333 -60.667 -51 -103.167 -95 -127.5
s-98.667 -36.5 -164 -36.5c-48 0 -90 9.33301 -126 28s-64.167 43.834 -84.5 75.501s-35.333 65.667 -45 102s-14.5 74.5 -14.5 114.5c0 45.333 4.66699 87.333 14 126s21.166 72.834 35.499 102.501s34.333 58.167 60 85.5s50.667 50.5 75 69.5s55.5 38.667 93.5 59
s72 37.333 102 51s67.667 29.834 113 48.501v110c0 46 -5.66699 80.333 -17 103s-30.666 34 -57.999 34c-18.667 0 -33.834 -3.83301 -45.501 -11.5s-19.834 -19.167 -24.501 -34.5s-7.66699 -29.166 -9 -41.499s-2 -28.833 -2 -49.5v-74h-327
c0 150 37.667 265.167 113 345.5s184.666 120.5 327.999 120.5c100 0 187.667 -36.333 263 -109s113 -159 113 -259v-620c0 -107.333 14.333 -223 43 -347h-308zM391.003 1437l-277 442h346l136 -442h-205z" />
    <glyph glyph-name="aacute" unicode="&#xe1;" horiz-adv-x="976" 
d="M552 295v321c-110.667 -89.333 -166 -187.333 -166 -294c0 -26.667 5.16699 -49.5 15.5 -68.5s27.833 -28.5 52.5 -28.5c14 0 27.833 4.5 41.5 13.5s23.5 16.833 29.5 23.5s15 17.667 27 33zM620 0l-32.9971 134.996c-19.333 -60.667 -51 -103.167 -95 -127.5
s-98.667 -36.5 -164 -36.5c-48 0 -90 9.33301 -126 28s-64.167 43.834 -84.5 75.501s-35.333 65.667 -45 102s-14.5 74.5 -14.5 114.5c0 45.333 4.66699 87.333 14 126s21.166 72.834 35.499 102.501s34.333 58.167 60 85.5s50.667 50.5 75 69.5s55.5 38.667 93.5 59
s72 37.333 102 51s67.667 29.834 113 48.501v110c0 46 -5.66699 80.333 -17 103s-30.666 34 -57.999 34c-18.667 0 -33.834 -3.83301 -45.501 -11.5s-19.834 -19.167 -24.501 -34.5s-7.66699 -29.166 -9 -41.499s-2 -28.833 -2 -49.5v-74h-327
c0 150 37.667 265.167 113 345.5s184.666 120.5 327.999 120.5c100 0 187.667 -36.333 263 -109s113 -159 113 -259v-620c0 -107.333 14.333 -223 43 -347h-308zM391.003 1437l136 442h345l-277 -442h-204z" />
    <glyph glyph-name="acircumflex" unicode="&#xe2;" horiz-adv-x="976" 
d="M552 295v321c-110.667 -89.333 -166 -187.333 -166 -294c0 -26.667 5.16699 -49.5 15.5 -68.5s27.833 -28.5 52.5 -28.5c14 0 27.833 4.5 41.5 13.5s23.5 16.833 29.5 23.5s15 17.667 27 33zM620 0l-32.9971 134.996c-19.333 -60.667 -51 -103.167 -95 -127.5
s-98.667 -36.5 -164 -36.5c-48 0 -90 9.33301 -126 28s-64.167 43.834 -84.5 75.501s-35.333 65.667 -45 102s-14.5 74.5 -14.5 114.5c0 45.333 4.66699 87.333 14 126s21.166 72.834 35.499 102.501s34.333 58.167 60 85.5s50.667 50.5 75 69.5s55.5 38.667 93.5 59
s72 37.333 102 51s67.667 29.834 113 48.501v110c0 46 -5.66699 80.333 -17 103s-30.666 34 -57.999 34c-18.667 0 -33.834 -3.83301 -45.501 -11.5s-19.834 -19.167 -24.501 -34.5s-7.66699 -29.166 -9 -41.499s-2 -28.833 -2 -49.5v-74h-327
c0 150 37.667 265.167 113 345.5s184.666 120.5 327.999 120.5c100 0 187.667 -36.333 263 -109s113 -159 113 -259v-620c0 -107.333 14.333 -223 43 -347h-308zM145.003 1437l201 406h290l206 -406h-275l-75 202l-73 -202h-274z" />
    <glyph glyph-name="atilde" unicode="&#xe3;" horiz-adv-x="976" 
d="M552 295v321c-110.667 -89.333 -166 -187.333 -166 -294c0 -26.667 5.16699 -49.5 15.5 -68.5s27.833 -28.5 52.5 -28.5c14 0 27.833 4.5 41.5 13.5s23.5 16.833 29.5 23.5s15 17.667 27 33zM620 0l-32.9971 134.996c-19.333 -60.667 -51 -103.167 -95 -127.5
s-98.667 -36.5 -164 -36.5c-48 0 -90 9.33301 -126 28s-64.167 43.834 -84.5 75.501s-35.333 65.667 -45 102s-14.5 74.5 -14.5 114.5c0 45.333 4.66699 87.333 14 126s21.166 72.834 35.499 102.501s34.333 58.167 60 85.5s50.667 50.5 75 69.5s55.5 38.667 93.5 59
s72 37.333 102 51s67.667 29.834 113 48.501v110c0 46 -5.66699 80.333 -17 103s-30.666 34 -57.999 34c-18.667 0 -33.834 -3.83301 -45.501 -11.5s-19.834 -19.167 -24.501 -34.5s-7.66699 -29.166 -9 -41.499s-2 -28.833 -2 -49.5v-74h-327
c0 150 37.667 265.167 113 345.5s184.666 120.5 327.999 120.5c100 0 187.667 -36.333 263 -109s113 -159 113 -259v-620c0 -107.333 14.333 -223 43 -347h-308zM322.003 1448h-167.001c0 34 1.16699 64 3.5 90s7.5 52.667 15.5 80s18.5 50 31.5 68s30.833 32.667 53.5 44
s49.667 17 81 17c48.667 0 107.167 -9.66699 175.5 -29s110.166 -29 125.499 -29c10.667 0 18.834 2.5 24.501 7.5s8.83398 10 9.50098 15s1 12.833 1 23.5h155c0 -198.667 -52 -298 -156 -298c-33.333 0 -84.5 12.167 -153.5 36.5s-119.167 36.5 -150.5 36.5
c-10 0 -18.333 -1.5 -25 -4.5s-11.5 -5.83301 -14.5 -8.5s-5.33301 -8 -7 -16s-2.5 -13 -2.5 -15v-18z" />
    <glyph glyph-name="adieresis" unicode="&#xe4;" horiz-adv-x="976" 
d="M552 295v321c-110.667 -89.333 -166 -187.333 -166 -294c0 -26.667 5.16699 -49.5 15.5 -68.5s27.833 -28.5 52.5 -28.5c14 0 27.833 4.5 41.5 13.5s23.5 16.833 29.5 23.5s15 17.667 27 33zM620 0l-32.9971 134.996c-19.333 -60.667 -51 -103.167 -95 -127.5
s-98.667 -36.5 -164 -36.5c-48 0 -90 9.33301 -126 28s-64.167 43.834 -84.5 75.501s-35.333 65.667 -45 102s-14.5 74.5 -14.5 114.5c0 45.333 4.66699 87.333 14 126s21.166 72.834 35.499 102.501s34.333 58.167 60 85.5s50.667 50.5 75 69.5s55.5 38.667 93.5 59
s72 37.333 102 51s67.667 29.834 113 48.501v110c0 46 -5.66699 80.333 -17 103s-30.666 34 -57.999 34c-18.667 0 -33.834 -3.83301 -45.501 -11.5s-19.834 -19.167 -24.501 -34.5s-7.66699 -29.166 -9 -41.499s-2 -28.833 -2 -49.5v-74h-327
c0 150 37.667 265.167 113 345.5s184.666 120.5 327.999 120.5c100 0 187.667 -36.333 263 -109s113 -159 113 -259v-620c0 -107.333 14.333 -223 43 -347h-308zM567.003 1437v308h304v-308h-304zM114.003 1437v308h303v-308h-303z" />
    <glyph glyph-name="aring" unicode="&#xe5;" horiz-adv-x="976" 
d="M552 295v321c-110.667 -89.333 -166 -187.333 -166 -294c0 -26.667 5.16699 -49.5 15.5 -68.5s27.833 -28.5 52.5 -28.5c14 0 27.833 4.5 41.5 13.5s23.5 16.833 29.5 23.5s15 17.667 27 33zM620 0l-32.9971 134.996c-19.333 -60.667 -51 -103.167 -95 -127.5
s-98.667 -36.5 -164 -36.5c-48 0 -90 9.33301 -126 28s-64.167 43.834 -84.5 75.501s-35.333 65.667 -45 102s-14.5 74.5 -14.5 114.5c0 45.333 4.66699 87.333 14 126s21.166 72.834 35.499 102.501s34.333 58.167 60 85.5s50.667 50.5 75 69.5s55.5 38.667 93.5 59
s72 37.333 102 51s67.667 29.834 113 48.501v110c0 46 -5.66699 80.333 -17 103s-30.666 34 -57.999 34c-18.667 0 -33.834 -3.83301 -45.501 -11.5s-19.834 -19.167 -24.501 -34.5s-7.66699 -29.166 -9 -41.499s-2 -28.833 -2 -49.5v-74h-327
c0 150 37.667 265.167 113 345.5s184.666 120.5 327.999 120.5c100 0 187.667 -36.333 263 -109s113 -159 113 -259v-620c0 -107.333 14.333 -223 43 -347h-308zM240.003 1676c0 72.667 23.833 130.667 71.5 174s108.167 65 181.5 65s133.833 -21.667 181.5 -65
s71.5 -101.333 71.5 -174s-23.833 -130.667 -71.5 -174s-108.167 -65 -181.5 -65s-133.833 21.667 -181.5 65s-71.5 101.333 -71.5 174zM493.003 1558c26 0 45.502 12.333 58.502 37s19.5 51.334 19.5 80.001s-6.5 55.667 -19.5 81s-32.5 38 -58.5 38
c-26.667 0 -46.834 -12.333 -60.501 -37s-20.5 -51.334 -20.5 -80.001c0 -30 6.66699 -57.333 20 -82s33.666 -37 60.999 -37z" />
    <glyph glyph-name="ae" unicode="&#xe6;" horiz-adv-x="1427" 
d="M894 964l0.000976562 -159.999c5.33301 1.33301 12.5 3 21.5 5s25 7.5 48 16.5s43.167 19.167 60.5 30.5s33.166 27 47.499 47s21.5 41.667 21.5 65c0 30.667 -9.5 56.667 -28.5 78s-47.833 32 -86.5 32c-24 0 -44 -12.833 -60 -38.5s-24 -50.834 -24 -75.501z
M581.001 421.001l-6 164.999c-44.667 -15.333 -81.834 -32.5 -111.501 -51.5s-51.167 -39 -64.5 -60s-22.166 -40.5 -26.499 -58.5s-6.5 -38.667 -6.5 -62c0 -33.333 8 -63.166 24 -89.499s39 -39.5 69 -39.5c40.667 0 71.167 19 91.5 57s30.5 84.333 30.5 139zM400.001 869
l-327.003 -0.00292969c0 145.333 36.333 259.5 109 342.5s174 124.5 304 124.5c2.66699 0 7.33398 -0.166992 14.001 -0.5s11.334 -0.5 14.001 -0.5c36.667 -1.33301 74 -11.5 112 -30.5s68.667 -42.833 92 -71.5c30 30.667 68.5 55.334 115.5 74.001s95.167 28 144.5 28
c54.667 0 106.834 -10.5 156.501 -31.5s91.167 -47.833 124.5 -80.5s59.833 -68.834 79.5 -108.501s29.5 -78.5 29.5 -116.5c0 -36.667 -6.33301 -70.334 -19 -101.001s-27 -56.5 -43 -77.5s-39.833 -40.667 -71.5 -59s-57.5 -32.166 -77.5 -41.499s-49.667 -19 -89 -29
s-65.5 -16.167 -78.5 -18.5s-37.5 -6.5 -73.5 -12.5c-4.66699 -1.33301 -8.66699 -2.16602 -12 -2.49902s-6.66602 -0.833008 -9.99902 -1.5v-309c0 -73.333 21.333 -110 64 -110c46.667 0 70 49.333 70 148c0 15.333 -0.5 34.666 -1.5 57.999s-1.5 38 -1.5 44h334v-147
c0 -109.333 -34.333 -196.5 -103 -261.5s-158 -100.5 -268 -106.5c-61.333 0 -120.333 16.5 -177 49.5s-92.667 74.5 -108 124.5c-29.333 -53.333 -74 -95.666 -134 -126.999s-119.333 -47 -178 -47s-112.334 11.333 -161.001 34s-88.667 58.834 -120 108.501
s-47 108.834 -47 177.501c0 45.333 4.5 86.333 13.5 123s20.333 68.5 34 95.5s33.167 51.667 58.5 74s49.833 40.833 73.5 55.5s54.667 29 93 43s72.833 25.333 103.5 34s69.667 18.667 117 30v135c0 126 -29 189 -87 189c-48 0 -72 -40 -72 -120
c0 -10.667 0.5 -25.167 1.5 -43.5s1.5 -30.833 1.5 -37.5z" />
    <glyph glyph-name="ccedilla" unicode="&#xe7;" horiz-adv-x="928" 
d="M78 334l0.000976562 559.998c0 138.667 33 246.834 99 324.501s166.667 116.5 302 116.5c136 0 236.833 -38.667 302.5 -116s98.5 -185.666 98.5 -324.999v-114h-331v149c0 52 -4.5 90.167 -13.5 114.5s-27.833 36.5 -56.5 36.5c-42.667 0 -64 -33 -64 -99v-646
c0 -73.333 21.333 -110 64 -110c16 0 28.833 3.33301 38.5 10s16.667 18 21 34s7.16602 32.5 8.49902 49.5s2 40.833 2 71.5v139h331v-195c0 -72 -18.667 -136.167 -56 -192.5s-86.333 -98.833 -147 -127.5s-126.667 -43 -198 -43c-110 0 -204.333 33.5 -283 100.5
s-118 154.5 -118 262.5zM338.001 -571.002l0.000976562 161.004c2 0 9.16699 -0.166992 21.5 -0.5s24.333 -0.5 36 -0.5s25.667 0.166992 42 0.5s31.166 1.5 44.499 3.5s26 4.33301 38 7s21.5 6.83398 28.5 12.501s10.5 12.167 10.5 19.5c0 6.66699 -1.33301 13.167 -4 19.5
s-6.83398 12.333 -12.501 18l-16.5 16c-5.33301 5 -12.666 10 -21.999 15l-23 12.5c-6 3.33301 -14.5 7.16602 -25.5 11.499s-18.667 7.5 -23 9.5s-11.5 4.66699 -21.5 8s-15.667 5.33301 -17 6v242h171v-129c147.333 -69.333 221 -147 221 -233
c0 -27.333 -6.16699 -51.833 -18.5 -73.5s-27.5 -39.334 -45.5 -53.001s-41.5 -25.334 -70.5 -35.001s-55.333 -16.834 -79 -21.501s-52.667 -8.33398 -87 -11.001s-60.5 -4.16699 -78.5 -4.5s-41 -0.5 -69 -0.5z" />
    <glyph glyph-name="egrave" unicode="&#xe8;" horiz-adv-x="940" 
d="M415 801h131v180c0 66 -22.333 99 -67 99c-42.667 0 -64 -33 -64 -99v-180zM78 339v554.998c0 138.667 33 246.834 99 324.501s166.667 116.5 302 116.5c136 0 236.833 -38.667 302.5 -116s98.5 -185.666 98.5 -324.999v-270h-465v-289c0 -73.333 21.333 -110 64 -110
c46.667 0 70 39.333 70 118v143h331v-147c0 -108.667 -39.333 -197.167 -118 -265.5s-173 -102.5 -283 -102.5s-204.333 34.333 -283 103s-118 157 -118 265zM377 1437l-277 442h346l136 -442h-205z" />
    <glyph glyph-name="eacute" unicode="&#xe9;" horiz-adv-x="940" 
d="M415 801h131v180c0 66 -22.333 99 -67 99c-42.667 0 -64 -33 -64 -99v-180zM78 339v554.998c0 138.667 33 246.834 99 324.501s166.667 116.5 302 116.5c136 0 236.833 -38.667 302.5 -116s98.5 -185.666 98.5 -324.999v-270h-465v-289c0 -73.333 21.333 -110 64 -110
c46.667 0 70 39.333 70 118v143h331v-147c0 -108.667 -39.333 -197.167 -118 -265.5s-173 -102.5 -283 -102.5s-204.333 34.333 -283 103s-118 157 -118 265zM377 1437l136 442h345l-277 -442h-204z" />
    <glyph glyph-name="ecircumflex" unicode="&#xea;" horiz-adv-x="940" 
d="M415 801h131v180c0 66 -22.333 99 -67 99c-42.667 0 -64 -33 -64 -99v-180zM78 339v554.998c0 138.667 33 246.834 99 324.501s166.667 116.5 302 116.5c136 0 236.833 -38.667 302.5 -116s98.5 -185.666 98.5 -324.999v-270h-465v-289c0 -73.333 21.333 -110 64 -110
c46.667 0 70 39.333 70 118v143h331v-147c0 -108.667 -39.333 -197.167 -118 -265.5s-173 -102.5 -283 -102.5s-204.333 34.333 -283 103s-118 157 -118 265zM131 1437l201 406h290l206 -406h-275l-75 202l-73 -202h-274z" />
    <glyph glyph-name="edieresis" unicode="&#xeb;" horiz-adv-x="940" 
d="M415 801h131v180c0 66 -22.333 99 -67 99c-42.667 0 -64 -33 -64 -99v-180zM78 339v554.998c0 138.667 33 246.834 99 324.501s166.667 116.5 302 116.5c136 0 236.833 -38.667 302.5 -116s98.5 -185.666 98.5 -324.999v-270h-465v-289c0 -73.333 21.333 -110 64 -110
c46.667 0 70 39.333 70 118v143h331v-147c0 -108.667 -39.333 -197.167 -118 -265.5s-173 -102.5 -283 -102.5s-204.333 34.333 -283 103s-118 157 -118 265zM553 1437v308h304v-308h-304zM100 1437v308h303v-308h-303z" />
    <glyph glyph-name="igrave" unicode="&#xec;" horiz-adv-x="532" 
d="M124 0v1305h337v-1305h-337zM190 1436l-277 442h346l136 -442h-205z" />
    <glyph glyph-name="iacute" unicode="&#xed;" horiz-adv-x="532" 
d="M124 0v1305h337v-1305h-337zM191 1436l136 442h345l-277 -442h-204z" />
    <glyph glyph-name="icircumflex" unicode="&#xee;" horiz-adv-x="532" 
d="M124 0v1305h337v-1305h-337zM-56 1436l201 406h290l206 -406h-275l-75 202l-73 -202h-274z" />
    <glyph glyph-name="idieresis" unicode="&#xef;" horiz-adv-x="532" 
d="M124 0v1305h337v-1305h-337zM367 1436v308h304v-308h-304zM-86 1436v308h303v-308h-303z" />
    <glyph glyph-name="eth" unicode="&#xf0;" horiz-adv-x="988" 
d="M552 340v534.001c0 21.333 -6.33301 38 -19 50s-28 18 -46 18s-33.333 -6.33301 -46 -19s-19 -31 -19 -55v-528c0 -14 0.5 -25.833 1.5 -35.5s3.33301 -20.334 7 -32.001s10 -20.667 19 -27s20.167 -9.5 33.5 -9.5c46 0 69 34.667 69 104zM87 341.001l-0.00195312 551
c0 94.667 29.333 170.667 88 228s127 86 205 86c66 0 123.667 -19.333 173 -58c0 96 -4 166.667 -12 212l-154 -78l-66 140l155 79c-46.667 46 -133.334 69 -260.001 69l48 265c234 0 401 -62.333 501 -187l143 73l66 -140l-134 -68c32.667 -88.667 49 -197 49 -325v-847
c0 -72 -19.167 -136.667 -57.5 -194s-88.166 -101 -149.499 -131s-127.666 -45 -198.999 -45c-109.333 0 -202.666 34.5 -279.999 103.5s-116 157.833 -116 266.5z" />
    <glyph glyph-name="ntilde" unicode="&#xf1;" horiz-adv-x="1005" 
d="M94 0l-0.000976562 1305h337v-92c32 36.667 70.5 66 115.5 88s91.833 33 140.5 33c46 0 87.167 -14.5 123.5 -43.5s63.333 -64.667 81 -107s26.5 -86.166 26.5 -131.499v-1052h-337v993c0 58 -18.667 87 -56 87c-4 0 -8.16699 -0.5 -12.5 -1.5
s-8.66602 -2.66699 -12.999 -5l-11.5 -6c-3.33301 -1.66699 -7.33301 -4.5 -12 -8.5l-10.5 -9c-2.33301 -2 -5.83301 -5.5 -10.5 -10.5s-7.66699 -8.33301 -9 -10s-4 -4.83398 -8 -9.50098l-7 -8v-1012h-337zM334.999 1447h-167.001c0 34 1.16699 64 3.5 90
s7.5 52.667 15.5 80s18.5 50 31.5 68s30.833 32.667 53.5 44s49.667 17 81 17c48.667 0 107.167 -9.66699 175.5 -29s110.166 -29 125.499 -29c10.667 0 18.834 2.5 24.501 7.5s8.83398 10 9.50098 15s1 12.833 1 23.5h155c0 -198.667 -52 -298 -156 -298
c-33.333 0 -84.5 12.167 -153.5 36.5s-119.167 36.5 -150.5 36.5c-10 0 -18.333 -1.5 -25 -4.5s-11.5 -5.83301 -14.5 -8.5s-5.33301 -8 -7 -16s-2.5 -13 -2.5 -15v-18z" />
    <glyph glyph-name="ograve" unicode="&#xf2;" horiz-adv-x="973" 
d="M561 335v646.001c0 66 -25.667 99 -77 99c-46 0 -69 -33 -69 -99v-646c0 -14.667 0.5 -26.834 1.5 -36.501s3.5 -21 7.5 -34s11 -22.833 21 -29.5s23 -10 39 -10c51.333 0 77 36.667 77 110zM78 339.001l0.00195312 555c0 139.333 32.833 247.5 98.5 324.5
s168.167 115.5 307.5 115.5s242.666 -38.5 309.999 -115.5s101 -185.167 101 -324.5v-555c0 -108.667 -40.333 -197.167 -121 -265.5s-177.334 -102.5 -290.001 -102.5c-72.667 0 -139.667 14.833 -201 44.5s-110.833 73 -148.5 130s-56.5 121.5 -56.5 193.5zM384.002 1436
l-277 442h346l136 -442h-205z" />
    <glyph glyph-name="oacute" unicode="&#xf3;" horiz-adv-x="973" 
d="M561 335v646.001c0 66 -25.667 99 -77 99c-46 0 -69 -33 -69 -99v-646c0 -14.667 0.5 -26.834 1.5 -36.501s3.5 -21 7.5 -34s11 -22.833 21 -29.5s23 -10 39 -10c51.333 0 77 36.667 77 110zM78 339.001l0.00195312 555c0 139.333 32.833 247.5 98.5 324.5
s168.167 115.5 307.5 115.5s242.666 -38.5 309.999 -115.5s101 -185.167 101 -324.5v-555c0 -108.667 -40.333 -197.167 -121 -265.5s-177.334 -102.5 -290.001 -102.5c-72.667 0 -139.667 14.833 -201 44.5s-110.833 73 -148.5 130s-56.5 121.5 -56.5 193.5zM385.002 1436
l136 442h345l-277 -442h-204z" />
    <glyph glyph-name="ocircumflex" unicode="&#xf4;" horiz-adv-x="973" 
d="M561 335v646.001c0 66 -25.667 99 -77 99c-46 0 -69 -33 -69 -99v-646c0 -14.667 0.5 -26.834 1.5 -36.501s3.5 -21 7.5 -34s11 -22.833 21 -29.5s23 -10 39 -10c51.333 0 77 36.667 77 110zM78 339.001l0.00195312 555c0 139.333 32.833 247.5 98.5 324.5
s168.167 115.5 307.5 115.5s242.666 -38.5 309.999 -115.5s101 -185.167 101 -324.5v-555c0 -108.667 -40.333 -197.167 -121 -265.5s-177.334 -102.5 -290.001 -102.5c-72.667 0 -139.667 14.833 -201 44.5s-110.833 73 -148.5 130s-56.5 121.5 -56.5 193.5zM138.002 1436
l201 406h290l206 -406h-275l-75 202l-73 -202h-274z" />
    <glyph glyph-name="otilde" unicode="&#xf5;" horiz-adv-x="973" 
d="M561 335v646.001c0 66 -25.667 99 -77 99c-46 0 -69 -33 -69 -99v-646c0 -14.667 0.5 -26.834 1.5 -36.501s3.5 -21 7.5 -34s11 -22.833 21 -29.5s23 -10 39 -10c51.333 0 77 36.667 77 110zM78 339.001l0.00195312 555c0 139.333 32.833 247.5 98.5 324.5
s168.167 115.5 307.5 115.5s242.666 -38.5 309.999 -115.5s101 -185.167 101 -324.5v-555c0 -108.667 -40.333 -197.167 -121 -265.5s-177.334 -102.5 -290.001 -102.5c-72.667 0 -139.667 14.833 -201 44.5s-110.833 73 -148.5 130s-56.5 121.5 -56.5 193.5zM302.002 1444
h-167.001c0 34 1.16699 64 3.5 90s7.5 52.667 15.5 80s18.5 50 31.5 68s30.833 32.667 53.5 44s49.667 17 81 17c48.667 0 107.167 -9.66699 175.5 -29s110.166 -29 125.499 -29c10.667 0 18.834 2.5 24.501 7.5s8.83398 10 9.50098 15s1 12.833 1 23.5h155
c0 -198.667 -52 -298 -156 -298c-33.333 0 -84.5 12.167 -153.5 36.5s-119.167 36.5 -150.5 36.5c-10 0 -18.333 -1.5 -25 -4.5s-11.5 -5.83301 -14.5 -8.5s-5.33301 -8 -7 -16s-2.5 -13 -2.5 -15v-18z" />
    <glyph glyph-name="odieresis" unicode="&#xf6;" horiz-adv-x="973" 
d="M561 335v646.001c0 66 -25.667 99 -77 99c-46 0 -69 -33 -69 -99v-646c0 -14.667 0.5 -26.834 1.5 -36.501s3.5 -21 7.5 -34s11 -22.833 21 -29.5s23 -10 39 -10c51.333 0 77 36.667 77 110zM78 339.001l0.00195312 555c0 139.333 32.833 247.5 98.5 324.5
s168.167 115.5 307.5 115.5s242.666 -38.5 309.999 -115.5s101 -185.167 101 -324.5v-555c0 -108.667 -40.333 -197.167 -121 -265.5s-177.334 -102.5 -290.001 -102.5c-72.667 0 -139.667 14.833 -201 44.5s-110.833 73 -148.5 130s-56.5 121.5 -56.5 193.5zM561.002 1436
v308h304v-308h-304zM108.002 1436v308h303v-308h-303z" />
    <glyph glyph-name="divide" unicode="&#xf7;" horiz-adv-x="696" 
d="M200 236v287h287v-287h-287zM200 890v287h287v-287h-287zM6 583v223h676v-223h-676z" />
    <glyph glyph-name="oslash" unicode="&#xf8;" horiz-adv-x="983" 
d="M566 346v618.001c0 66 -25.667 99 -77 99c-46 0 -69 -33 -69 -99v-618c0 -14.667 0.5 -26.834 1.5 -36.501s3.5 -21 7.5 -34s11 -22.833 21 -29.5s23 -10 39 -10c51.333 0 77 36.667 77 110zM208 -232.999l73.002 254c-60.667 31.333 -108.834 74.5 -144.501 129.5
s-53.5 117.833 -53.5 188.5v555c0 139.333 32.833 247.5 98.5 324.5s168.167 115.5 307.5 115.5c60.667 0 115 -7.66699 163 -23l73 253l77 -20l-77 -266c116.667 -68.667 175 -196.667 175 -384v-555c0 -108.667 -40.333 -197 -121 -265s-177.334 -102 -290.001 -102
c-46 0 -91 6.66699 -135 20l-70 -245z" />
    <glyph glyph-name="ugrave" unicode="&#xf9;" horiz-adv-x="1006" 
d="M87 253l0.000976562 1052h337v-970c0 -73.333 15.333 -110 46 -110c30 0 65 24.667 105 74v1006h337v-1305h-337v113c-34 -41.333 -73.667 -75.333 -119 -102s-91.333 -40 -138 -40c-68.667 0 -124.334 29.167 -167.001 87.5s-64 123.166 -64 194.499zM397.001 1436
l-277 442h346l136 -442h-205z" />
    <glyph glyph-name="uacute" unicode="&#xfa;" horiz-adv-x="1006" 
d="M87 253l0.000976562 1052h337v-970c0 -73.333 15.333 -110 46 -110c30 0 65 24.667 105 74v1006h337v-1305h-337v113c-34 -41.333 -73.667 -75.333 -119 -102s-91.333 -40 -138 -40c-68.667 0 -124.334 29.167 -167.001 87.5s-64 123.166 -64 194.499zM397.001 1436
l136 442h345l-277 -442h-204z" />
    <glyph glyph-name="ucircumflex" unicode="&#xfb;" horiz-adv-x="1006" 
d="M87 253l0.000976562 1052h337v-970c0 -73.333 15.333 -110 46 -110c30 0 65 24.667 105 74v1006h337v-1305h-337v113c-34 -41.333 -73.667 -75.333 -119 -102s-91.333 -40 -138 -40c-68.667 0 -124.334 29.167 -167.001 87.5s-64 123.166 -64 194.499zM151.001 1436
l201 406h290l206 -406h-275l-75 202l-73 -202h-274z" />
    <glyph glyph-name="udieresis" unicode="&#xfc;" horiz-adv-x="1006" 
d="M87 253l0.000976562 1052h337v-970c0 -73.333 15.333 -110 46 -110c30 0 65 24.667 105 74v1006h337v-1305h-337v113c-34 -41.333 -73.667 -75.333 -119 -102s-91.333 -40 -138 -40c-68.667 0 -124.334 29.167 -167.001 87.5s-64 123.166 -64 194.499zM574.001 1436v308
h304v-308h-304zM121.001 1436v308h303v-308h-303z" />
    <glyph glyph-name="yacute" unicode="&#xfd;" horiz-adv-x="872" 
d="M270 117c0 87.333 -17.668 214.502 -53.001 381.502s-76.333 338.5 -123 514.5s-72 273.333 -76 292h307l121 -728l106 728h309l-285 -1340c-10 -45.333 -25.333 -84.833 -46 -118.5s-44.167 -60.334 -70.5 -80.001s-58 -35.5 -95 -47.5s-73.667 -20 -110 -24
s-77.833 -6 -124.5 -6h-43v233c66.667 1.33301 113.834 17.166 141.501 47.499s41.5 79.5 41.5 147.5zM315.999 1393l136 442h345l-277 -442h-204z" />
    <glyph glyph-name="thorn" unicode="&#xfe;" horiz-adv-x="988" 
d="M99 -371v2171h337v-583c26 35.333 57 63.833 93 85.5s74 32.5 114 32.5c73.333 0 134.833 -28.667 184.5 -86s74.5 -123.333 74.5 -198v-801c0 -74.667 -24.833 -139.834 -74.5 -195.501s-111.167 -83.5 -184.5 -83.5c-40.667 0 -79.167 11.333 -115.5 34
s-66.833 53.667 -91.5 93v-469h-337zM567 310.001l0.00195312 687.001c0 57.333 -15.333 86 -46 86c-3.33301 0 -6.83301 -0.5 -10.5 -1.5s-7 -2.33301 -10 -4s-6.33301 -4 -10 -7s-6.83398 -5.5 -9.50098 -7.5s-5.83398 -5.16699 -9.50098 -9.5l-8.5 -10
c-2 -2.33301 -4.66699 -6 -8 -11s-5.66602 -8.33301 -6.99902 -10s-3.66602 -4.83398 -6.99902 -9.50098s-5 -7.33398 -5 -8.00098v-708c26 -40.667 47.333 -65.667 64 -75c7.33301 -4 14.333 -6 21 -6c13.333 0 23.666 5.33301 30.999 16s11.666 21.834 12.999 33.501
s2 26.5 2 44.5z" />
    <glyph glyph-name="ydieresis" unicode="&#xff;" horiz-adv-x="872" 
d="M270 117c0 87.333 -17.668 214.502 -53.001 381.502s-76.333 338.5 -123 514.5s-72 273.333 -76 292h307l121 -728l106 728h309l-285 -1340c-10 -45.333 -25.333 -84.833 -46 -118.5s-44.167 -60.334 -70.5 -80.001s-58 -35.5 -95 -47.5s-73.667 -20 -110 -24
s-77.833 -6 -124.5 -6h-43v233c66.667 1.33301 113.834 17.166 141.501 47.499s41.5 79.5 41.5 147.5zM504.999 1492v308h304v-308h-304zM51.999 1492v308h303v-308h-303z" />
    <glyph glyph-name="Amacron" unicode="&#x100;" horiz-adv-x="1135" 
d="M465 609h186l-91 668zM9 0l389 1800h322l388 -1800h-359l-74 385h-235l-70 -385h-361zM314 1937v193h507v-193h-507z" />
    <glyph glyph-name="amacron" unicode="&#x101;" horiz-adv-x="976" 
d="M552 295v321c-110.667 -89.333 -166 -187.333 -166 -294c0 -26.667 5.16699 -49.5 15.5 -68.5s27.833 -28.5 52.5 -28.5c14 0 27.833 4.5 41.5 13.5s23.5 16.833 29.5 23.5s15 17.667 27 33zM620 0l-32.9971 134.996c-19.333 -60.667 -51 -103.167 -95 -127.5
s-98.667 -36.5 -164 -36.5c-48 0 -90 9.33301 -126 28s-64.167 43.834 -84.5 75.501s-35.333 65.667 -45 102s-14.5 74.5 -14.5 114.5c0 45.333 4.66699 87.333 14 126s21.166 72.834 35.499 102.501s34.333 58.167 60 85.5s50.667 50.5 75 69.5s55.5 38.667 93.5 59
s72 37.333 102 51s67.667 29.834 113 48.501v110c0 46 -5.66699 80.333 -17 103s-30.666 34 -57.999 34c-18.667 0 -33.834 -3.83301 -45.501 -11.5s-19.834 -19.167 -24.501 -34.5s-7.66699 -29.166 -9 -41.499s-2 -28.833 -2 -49.5v-74h-327
c0 150 37.667 265.167 113 345.5s184.666 120.5 327.999 120.5c100 0 187.667 -36.333 263 -109s113 -159 113 -259v-620c0 -107.333 14.333 -223 43 -347h-308zM240.003 1437v193h507v-193h-507z" />
    <glyph glyph-name="Abreve" unicode="&#x102;" horiz-adv-x="1135" 
d="M465 609h186l-91 668zM9 0l389 1800h322l388 -1800h-359l-74 385h-235l-70 -385h-361zM315 2185h171.998c0 -18.667 2.33301 -37 7 -55s13.334 -34.5 26.001 -49.5s28.667 -22.5 48 -22.5s35.333 7.5 48 22.5s21.334 31.5 26.001 49.5s7 36.333 7 55h172
c0 -73.333 -23.667 -133 -71 -179s-108 -69 -182 -69s-134.667 23 -182 69s-71 105.667 -71 179z" />
    <glyph glyph-name="abreve" unicode="&#x103;" horiz-adv-x="976" 
d="M552 295v321c-110.667 -89.333 -166 -187.333 -166 -294c0 -26.667 5.16699 -49.5 15.5 -68.5s27.833 -28.5 52.5 -28.5c14 0 27.833 4.5 41.5 13.5s23.5 16.833 29.5 23.5s15 17.667 27 33zM620 0l-32.9971 134.996c-19.333 -60.667 -51 -103.167 -95 -127.5
s-98.667 -36.5 -164 -36.5c-48 0 -90 9.33301 -126 28s-64.167 43.834 -84.5 75.501s-35.333 65.667 -45 102s-14.5 74.5 -14.5 114.5c0 45.333 4.66699 87.333 14 126s21.166 72.834 35.499 102.501s34.333 58.167 60 85.5s50.667 50.5 75 69.5s55.5 38.667 93.5 59
s72 37.333 102 51s67.667 29.834 113 48.501v110c0 46 -5.66699 80.333 -17 103s-30.666 34 -57.999 34c-18.667 0 -33.834 -3.83301 -45.501 -11.5s-19.834 -19.167 -24.501 -34.5s-7.66699 -29.166 -9 -41.499s-2 -28.833 -2 -49.5v-74h-327
c0 150 37.667 265.167 113 345.5s184.666 120.5 327.999 120.5c100 0 187.667 -36.333 263 -109s113 -159 113 -259v-620c0 -107.333 14.333 -223 43 -347h-308zM240.003 1685h171.998c0 -18.667 2.33301 -37 7 -55s13.334 -34.5 26.001 -49.5s28.667 -22.5 48 -22.5
s35.333 7.5 48 22.5s21.334 31.5 26.001 49.5s7 36.333 7 55h172c0 -73.333 -23.667 -133 -71 -179s-108 -69 -182 -69s-134.667 23 -182 69s-71 105.667 -71 179z" />
    <glyph glyph-name="Aogonek" unicode="&#x104;" horiz-adv-x="1135" 
d="M465 609h186l-91 668zM9 0l389 1800h322l388 -1800h-359l-74 385h-235l-70 -385h-361zM1046 -356l-20.999 -160.002c-27.333 -2 -56.166 -2 -86.499 0s-60.166 4.5 -89.499 7.5s-57.5 9.83301 -84.5 20.5s-50.833 23.667 -71.5 39s-37 36.5 -49 63.5s-18 57.833 -18 92.5
c0 52 14.667 106.833 44 164.5s65 106.5 107 146.5h148c-4.66699 -13.333 -12.334 -33.833 -23.001 -61.5l-25 -66c-6 -16.333 -11.5 -36.666 -16.5 -60.999s-7.5 -47.166 -7.5 -68.499c0 -18.667 2.66699 -35.167 8 -49.5s13.833 -25.5 25.5 -33.5s22.667 -14.5 33 -19.5
s24.666 -8.5 42.999 -10.5s32.166 -3.16699 41.499 -3.5s23.333 -0.5 42 -0.5z" />
    <glyph glyph-name="aogonek" unicode="&#x105;" horiz-adv-x="976" 
d="M552 295v321c-110.667 -89.333 -166 -187.333 -166 -294c0 -26.667 5.16699 -49.5 15.5 -68.5s27.833 -28.5 52.5 -28.5c14 0 27.833 4.5 41.5 13.5s23.5 16.833 29.5 23.5s15 17.667 27 33zM620 0l-32.9971 134.996c-19.333 -60.667 -51 -103.167 -95 -127.5
s-98.667 -36.5 -164 -36.5c-48 0 -90 9.33301 -126 28s-64.167 43.834 -84.5 75.501s-35.333 65.667 -45 102s-14.5 74.5 -14.5 114.5c0 45.333 4.66699 87.333 14 126s21.166 72.834 35.499 102.501s34.333 58.167 60 85.5s50.667 50.5 75 69.5s55.5 38.667 93.5 59
s72 37.333 102 51s67.667 29.834 113 48.501v110c0 46 -5.66699 80.333 -17 103s-30.666 34 -57.999 34c-18.667 0 -33.834 -3.83301 -45.501 -11.5s-19.834 -19.167 -24.501 -34.5s-7.66699 -29.166 -9 -41.499s-2 -28.833 -2 -49.5v-74h-327
c0 150 37.667 265.167 113 345.5s184.666 120.5 327.999 120.5c100 0 187.667 -36.333 263 -109s113 -159 113 -259v-620c0 -107.333 14.333 -223 43 -347h-308zM902.003 -365.004l-20.999 -160.002c-27.333 -2 -56.166 -2 -86.499 0s-60.166 4.5 -89.499 7.5
s-57.5 9.83301 -84.5 20.5s-50.833 23.667 -71.5 39s-37 36.5 -49 63.5s-18 57.833 -18 92.5c0 52 14.667 106.833 44 164.5s65 106.5 107 146.5h148c-4.66699 -13.333 -12.334 -33.833 -23.001 -61.5l-25 -66c-6 -16.333 -11.5 -36.666 -16.5 -60.999
s-7.5 -47.166 -7.5 -68.499c0 -18.667 2.66699 -35.167 8 -49.5s13.833 -25.5 25.5 -33.5s22.667 -14.5 33 -19.5s24.666 -8.5 42.999 -10.5s32.166 -3.16699 41.499 -3.5s23.333 -0.5 42 -0.5z" />
    <glyph glyph-name="Cacute" unicode="&#x106;" horiz-adv-x="1174" 
d="M84 601l0.00292969 595.999c0 425.333 174 638 522 638c73.333 0 138.5 -9.83301 195.5 -29.5s104.833 -46.834 143.5 -81.501s70.5 -77.334 95.5 -128.001s43 -105.667 54 -165s16.5 -124.666 16.5 -195.999v-155h-358v166c0 32.667 -0.666992 60.834 -2 84.501
s-4.83301 50.667 -10.5 81s-13.334 55 -23.001 74s-24 35.167 -43 48.5s-41.833 20 -68.5 20c-105.333 0 -158 -88.667 -158 -266v-777c0 -176.667 52.667 -265 158 -265c31.333 0 57.666 9 78.999 27s36.666 43.5 45.999 76.5s15.666 65.333 18.999 97s5 67.834 5 108.501
v185h356v-152c-1.33301 -68.667 -7 -132 -17 -190s-27 -114.333 -51 -169s-54.5 -100.834 -91.5 -138.501s-84.833 -68 -143.5 -91s-126 -34.5 -202 -34.5c-78 0 -147.167 11.167 -207.5 33.5s-110 52.333 -149 90s-71.167 84 -96.5 139s-43.166 112.833 -53.499 173.5
s-15.5 127.334 -15.5 200.001zM495.003 1937l136 442h345l-277 -442h-204z" />
    <glyph glyph-name="cacute" unicode="&#x107;" horiz-adv-x="928" 
d="M78 334l0.000976562 559.998c0 138.667 33 246.834 99 324.501s166.667 116.5 302 116.5c136 0 236.833 -38.667 302.5 -116s98.5 -185.666 98.5 -324.999v-114h-331v149c0 52 -4.5 90.167 -13.5 114.5s-27.833 36.5 -56.5 36.5c-42.667 0 -64 -33 -64 -99v-646
c0 -73.333 21.333 -110 64 -110c16 0 28.833 3.33301 38.5 10s16.667 18 21 34s7.16602 32.5 8.49902 49.5s2 40.833 2 71.5v139h331v-195c0 -72 -18.667 -136.167 -56 -192.5s-86.333 -98.833 -147 -127.5s-126.667 -43 -198 -43c-110 0 -204.333 33.5 -283 100.5
s-118 154.5 -118 262.5zM377.001 1437l136 442h345l-277 -442h-204z" />
    <glyph glyph-name="Ccircumflex" unicode="&#x108;" horiz-adv-x="1174" 
d="M84 601l0.00292969 595.999c0 425.333 174 638 522 638c73.333 0 138.5 -9.83301 195.5 -29.5s104.833 -46.834 143.5 -81.501s70.5 -77.334 95.5 -128.001s43 -105.667 54 -165s16.5 -124.666 16.5 -195.999v-155h-358v166c0 32.667 -0.666992 60.834 -2 84.501
s-4.83301 50.667 -10.5 81s-13.334 55 -23.001 74s-24 35.167 -43 48.5s-41.833 20 -68.5 20c-105.333 0 -158 -88.667 -158 -266v-777c0 -176.667 52.667 -265 158 -265c31.333 0 57.666 9 78.999 27s36.666 43.5 45.999 76.5s15.666 65.333 18.999 97s5 67.834 5 108.501
v185h356v-152c-1.33301 -68.667 -7 -132 -17 -190s-27 -114.333 -51 -169s-54.5 -100.834 -91.5 -138.501s-84.833 -68 -143.5 -91s-126 -34.5 -202 -34.5c-78 0 -147.167 11.167 -207.5 33.5s-110 52.333 -149 90s-71.167 84 -96.5 139s-43.166 112.833 -53.499 173.5
s-15.5 127.334 -15.5 200.001zM249.003 1937l201 406h290l206 -406h-275l-75 202l-73 -202h-274z" />
    <glyph glyph-name="ccircumflex" unicode="&#x109;" horiz-adv-x="928" 
d="M78 334l0.000976562 559.998c0 138.667 33 246.834 99 324.501s166.667 116.5 302 116.5c136 0 236.833 -38.667 302.5 -116s98.5 -185.666 98.5 -324.999v-114h-331v149c0 52 -4.5 90.167 -13.5 114.5s-27.833 36.5 -56.5 36.5c-42.667 0 -64 -33 -64 -99v-646
c0 -73.333 21.333 -110 64 -110c16 0 28.833 3.33301 38.5 10s16.667 18 21 34s7.16602 32.5 8.49902 49.5s2 40.833 2 71.5v139h331v-195c0 -72 -18.667 -136.167 -56 -192.5s-86.333 -98.833 -147 -127.5s-126.667 -43 -198 -43c-110 0 -204.333 33.5 -283 100.5
s-118 154.5 -118 262.5zM131.001 1437l201 406h290l206 -406h-275l-75 202l-73 -202h-274z" />
    <glyph glyph-name="Cdotaccent" unicode="&#x10a;" horiz-adv-x="1174" 
d="M84 601l0.00292969 595.999c0 425.333 174 638 522 638c73.333 0 138.5 -9.83301 195.5 -29.5s104.833 -46.834 143.5 -81.501s70.5 -77.334 95.5 -128.001s43 -105.667 54 -165s16.5 -124.666 16.5 -195.999v-155h-358v166c0 32.667 -0.666992 60.834 -2 84.501
s-4.83301 50.667 -10.5 81s-13.334 55 -23.001 74s-24 35.167 -43 48.5s-41.833 20 -68.5 20c-105.333 0 -158 -88.667 -158 -266v-777c0 -176.667 52.667 -265 158 -265c31.333 0 57.666 9 78.999 27s36.666 43.5 45.999 76.5s15.666 65.333 18.999 97s5 67.834 5 108.501
v185h356v-152c-1.33301 -68.667 -7 -132 -17 -190s-27 -114.333 -51 -169s-54.5 -100.834 -91.5 -138.501s-84.833 -68 -143.5 -91s-126 -34.5 -202 -34.5c-78 0 -147.167 11.167 -207.5 33.5s-110 52.333 -149 90s-71.167 84 -96.5 139s-43.166 112.833 -53.499 173.5
s-15.5 127.334 -15.5 200.001zM436.003 1937v318h323v-318h-323z" />
    <glyph glyph-name="cdotaccent" unicode="&#x10b;" horiz-adv-x="928" 
d="M78 334l0.000976562 559.998c0 138.667 33 246.834 99 324.501s166.667 116.5 302 116.5c136 0 236.833 -38.667 302.5 -116s98.5 -185.666 98.5 -324.999v-114h-331v149c0 52 -4.5 90.167 -13.5 114.5s-27.833 36.5 -56.5 36.5c-42.667 0 -64 -33 -64 -99v-646
c0 -73.333 21.333 -110 64 -110c16 0 28.833 3.33301 38.5 10s16.667 18 21 34s7.16602 32.5 8.49902 49.5s2 40.833 2 71.5v139h331v-195c0 -72 -18.667 -136.167 -56 -192.5s-86.333 -98.833 -147 -127.5s-126.667 -43 -198 -43c-110 0 -204.333 33.5 -283 100.5
s-118 154.5 -118 262.5zM318.001 1437v318h323v-318h-323z" />
    <glyph glyph-name="Ccaron" unicode="&#x10c;" horiz-adv-x="1174" 
d="M84 601l0.00292969 595.999c0 425.333 174 638 522 638c73.333 0 138.5 -9.83301 195.5 -29.5s104.833 -46.834 143.5 -81.501s70.5 -77.334 95.5 -128.001s43 -105.667 54 -165s16.5 -124.666 16.5 -195.999v-155h-358v166c0 32.667 -0.666992 60.834 -2 84.501
s-4.83301 50.667 -10.5 81s-13.334 55 -23.001 74s-24 35.167 -43 48.5s-41.833 20 -68.5 20c-105.333 0 -158 -88.667 -158 -266v-777c0 -176.667 52.667 -265 158 -265c31.333 0 57.666 9 78.999 27s36.666 43.5 45.999 76.5s15.666 65.333 18.999 97s5 67.834 5 108.501
v185h356v-152c-1.33301 -68.667 -7 -132 -17 -190s-27 -114.333 -51 -169s-54.5 -100.834 -91.5 -138.501s-84.833 -68 -143.5 -91s-126 -34.5 -202 -34.5c-78 0 -147.167 11.167 -207.5 33.5s-110 52.333 -149 90s-71.167 84 -96.5 139s-43.166 112.833 -53.499 173.5
s-15.5 127.334 -15.5 200.001zM450.003 1937l-201 406h274l73 -201l75 201h275l-206 -406h-290z" />
    <glyph glyph-name="ccaron" unicode="&#x10d;" horiz-adv-x="928" 
d="M78 334l0.000976562 559.998c0 138.667 33 246.834 99 324.501s166.667 116.5 302 116.5c136 0 236.833 -38.667 302.5 -116s98.5 -185.666 98.5 -324.999v-114h-331v149c0 52 -4.5 90.167 -13.5 114.5s-27.833 36.5 -56.5 36.5c-42.667 0 -64 -33 -64 -99v-646
c0 -73.333 21.333 -110 64 -110c16 0 28.833 3.33301 38.5 10s16.667 18 21 34s7.16602 32.5 8.49902 49.5s2 40.833 2 71.5v139h331v-195c0 -72 -18.667 -136.167 -56 -192.5s-86.333 -98.833 -147 -127.5s-126.667 -43 -198 -43c-110 0 -204.333 33.5 -283 100.5
s-118 154.5 -118 262.5zM331.001 1437l-201 406h274l73 -201l75 201h275l-206 -406h-290z" />
    <glyph glyph-name="Dcaron" unicode="&#x10e;" horiz-adv-x="1164" 
d="M107 0v1800h376c120 0 218.833 -10.833 296.5 -32.5s138.667 -57.334 183 -107.001s75 -109.167 92 -178.5s25.5 -157.666 25.5 -264.999v-590c0 -64 -2 -119.833 -6 -167.5s-11.5 -94.334 -22.5 -140.001s-26 -84.334 -45 -116.001s-43.5 -61.167 -73.5 -88.5
s-66.167 -49 -108.5 -65s-92 -28.333 -149 -37s-122.5 -13 -196.5 -13h-372zM485 255.002c34.667 0 61.999 0.50293 81.999 1.50293s40 3.5 60 7.5s34.667 9.5 44 16.5s18 17.167 26 30.5s13.167 29.166 15.5 47.499s3.5 41.166 3.5 68.499v969
c0 59.333 -17.667 98.666 -53 117.999s-94.666 29.333 -177.999 30v-1289zM445.999 1937l-201 406h274l73 -201l75 201h275l-206 -406h-290z" />
    <glyph glyph-name="dcaron" unicode="&#x10f;" horiz-adv-x="999" 
d="M79 250v770.999c0 82.667 26 155.667 78 219s116.333 95 193 95c42 0 81.833 -10.833 119.5 -32.5s70.167 -50.167 97.5 -85.5v583h337v-1800h-337v98c-26.667 -39.333 -60 -70.333 -100 -93s-82.333 -34 -127 -34c-74 0 -136 27.833 -186 83.5s-75 120.834 -75 195.501z
M567 296.999l-0.000976562 708.001c-38 50 -69.667 75 -95 75c-37.333 0 -56 -28.667 -56 -86v-675c0 -18 0.833008 -32.833 2.5 -44.5s7 -22.834 16 -33.501s21.5 -16 37.5 -16c28.667 0 60.334 24 95.001 72zM1126 1239l-39.999 166.003h15
c17.333 0 29.166 0.166992 35.499 0.5s12.5 3.33301 18.5 9s9.5 13.167 10.5 22.5s1.5 24.333 1.5 45h-110v318h323v-88c0.666992 -76.667 0.5 -133.334 -0.5 -170.001s-5.5 -80.834 -13.5 -132.501s-20.667 -88 -38 -109s-42.833 -38.333 -76.5 -52
s-75.5 -16.834 -125.5 -9.50098z" />
    <glyph glyph-name="Dcroat" unicode="&#x110;" horiz-adv-x="1156" 
d="M461 255h15.001c33.333 0 60 0.666992 80 2s39.667 4 59 8s34 9.5 44 16.5s19 17.167 27 30.5s13.333 29 16 47s4 40.667 4 68v969c0 60 -17.833 99.5 -53.5 118.5s-95.834 28.833 -180.501 29.5h-11v-532h124v-183h-124v-574zM97.001 0v829.002h-92v183h92v788h376
c120 0 218.833 -10.833 296.5 -32.5s138.667 -57.334 183 -107.001s75 -109.167 92 -178.5s25.5 -157.666 25.5 -264.999v-590c0 -64 -2 -119.833 -6 -167.5s-11.5 -94.334 -22.5 -140.001s-26 -84.334 -45 -116.001s-43.5 -61.167 -73.5 -88.5s-66.167 -49 -108.5 -65
s-92 -28.333 -149 -37s-122.5 -13 -196.5 -13h-372z" />
    <glyph glyph-name="dcroat" unicode="&#x111;" horiz-adv-x="999" 
d="M567 297l-0.000976562 708.001c-38 50 -69.667 75 -95 75c-37.333 0 -56 -28.667 -56 -86v-675c0 -18 0.833008 -32.833 2.5 -44.5s7 -22.834 16 -33.501s21.5 -16 37.5 -16c28.667 0 60.334 24 95.001 72zM78.999 250.001v770.999c0 82.667 26 155.667 78 219
s116.333 95 193 95c42 0 81.833 -10.833 119.5 -32.5s70.167 -50.167 97.5 -85.5v287h-283v133h283v163h337v-163h95v-133h-95v-1504h-337v98c-26.667 -39.333 -60 -70.333 -100 -93s-82.333 -34 -127 -34c-74 0 -136 27.833 -186 83.5s-75 120.834 -75 195.501z" />
    <glyph glyph-name="Emacron" unicode="&#x112;" horiz-adv-x="889" 
d="M107 0v1800h751v-250h-387v-490h274v-256h-274v-554h387v-250h-751zM229 1937v193h507v-193h-507z" />
    <glyph glyph-name="emacron" unicode="&#x113;" horiz-adv-x="940" 
d="M415 801h131v180c0 66 -22.333 99 -67 99c-42.667 0 -64 -33 -64 -99v-180zM78 339v554.998c0 138.667 33 246.834 99 324.501s166.667 116.5 302 116.5c136 0 236.833 -38.667 302.5 -116s98.5 -185.666 98.5 -324.999v-270h-465v-289c0 -73.333 21.333 -110 64 -110
c46.667 0 70 39.333 70 118v143h331v-147c0 -108.667 -39.333 -197.167 -118 -265.5s-173 -102.5 -283 -102.5s-204.333 34.333 -283 103s-118 157 -118 265zM216 1457v193h507v-193h-507z" />
    <glyph glyph-name="Edotaccent" unicode="&#x116;" horiz-adv-x="881" 
d="M321 1957v318h323v-318h-323zM107 0v1800h751v-250h-387v-490h274v-256h-274v-554h387v-250h-751z" />
    <glyph glyph-name="edotaccent" unicode="&#x117;" horiz-adv-x="940" 
d="M318 1457v318h323v-318h-323zM415 801h131v180c0 66 -22.333 99 -67 99c-42.667 0 -64 -33 -64 -99v-180zM78 339v554.998c0 138.667 33 246.834 99 324.501s166.667 116.5 302 116.5c136 0 236.833 -38.667 302.5 -116s98.5 -185.666 98.5 -324.999v-270h-465v-289
c0 -73.333 21.333 -110 64 -110c46.667 0 70 39.333 70 118v143h331v-147c0 -108.667 -39.333 -197.167 -118 -265.5s-173 -102.5 -283 -102.5s-204.333 34.333 -283 103s-118 157 -118 265z" />
    <glyph glyph-name="Eogonek" unicode="&#x118;" horiz-adv-x="889" 
d="M107 0v1800h751v-250h-387v-490h274v-256h-274v-554h387v-250h-751zM752 -356l-20.999 -160.002c-27.333 -2 -56.166 -2 -86.499 0s-60.166 4.5 -89.499 7.5s-57.5 9.83301 -84.5 20.5s-50.833 23.667 -71.5 39s-37 36.5 -49 63.5s-18 57.833 -18 92.5
c0 52 14.667 106.833 44 164.5s65 106.5 107 146.5h148c-4.66699 -13.333 -12.334 -33.833 -23.001 -61.5l-25 -66c-6 -16.333 -11.5 -36.666 -16.5 -60.999s-7.5 -47.166 -7.5 -68.499c0 -18.667 2.66699 -35.167 8 -49.5s13.833 -25.5 25.5 -33.5s22.667 -14.5 33 -19.5
s24.666 -8.5 42.999 -10.5s32.166 -3.16699 41.499 -3.5s23.333 -0.5 42 -0.5z" />
    <glyph glyph-name="eogonek" unicode="&#x119;" horiz-adv-x="940" 
d="M415 801h131v180c0 66 -22.333 99 -67 99c-42.667 0 -64 -33 -64 -99v-180zM78 339v554.998c0 138.667 33 246.834 99 324.501s166.667 116.5 302 116.5c136 0 236.833 -38.667 302.5 -116s98.5 -185.666 98.5 -324.999v-270h-465v-289c0 -73.333 21.333 -110 64 -110
c46.667 0 70 39.333 70 118v143h331v-147c0 -108.667 -39.333 -197.167 -118 -265.5s-173 -102.5 -283 -102.5s-204.333 34.333 -283 103s-118 157 -118 265zM659 -366.002l-20.999 -160.002c-27.333 -2 -56.166 -2 -86.499 0s-60.166 4.5 -89.499 7.5
s-57.5 9.83301 -84.5 20.5s-50.833 23.667 -71.5 39s-37 36.5 -49 63.5s-18 57.833 -18 92.5c0 52 14.667 106.833 44 164.5s65 106.5 107 146.5h148c-4.66699 -13.333 -12.334 -33.833 -23.001 -61.5l-25 -66c-6 -16.333 -11.5 -36.666 -16.5 -60.999
s-7.5 -47.166 -7.5 -68.499c0 -18.667 2.66699 -35.167 8 -49.5s13.833 -25.5 25.5 -33.5s22.667 -14.5 33 -19.5s24.666 -8.5 42.999 -10.5s32.166 -3.16699 41.499 -3.5s23.333 -0.5 42 -0.5z" />
    <glyph glyph-name="Ecaron" unicode="&#x11a;" horiz-adv-x="889" 
d="M107 0v1800h751v-250h-387v-490h274v-256h-274v-554h387v-250h-751zM335 1937l-201 406h274l73 -201l75 201h275l-206 -406h-290z" />
    <glyph glyph-name="ecaron" unicode="&#x11b;" horiz-adv-x="940" 
d="M415 801h131v180c0 66 -22.333 99 -67 99c-42.667 0 -64 -33 -64 -99v-180zM78 339v554.998c0 138.667 33 246.834 99 324.501s166.667 116.5 302 116.5c136 0 236.833 -38.667 302.5 -116s98.5 -185.666 98.5 -324.999v-270h-465v-289c0 -73.333 21.333 -110 64 -110
c46.667 0 70 39.333 70 118v143h331v-147c0 -108.667 -39.333 -197.167 -118 -265.5s-173 -102.5 -283 -102.5s-204.333 34.333 -283 103s-118 157 -118 265zM331 1437l-201 406h274l73 -201l75 201h275l-206 -406h-290z" />
    <glyph glyph-name="Gcircumflex" unicode="&#x11c;" horiz-adv-x="1238" 
d="M84 563l0.00195312 634c0 425.333 177 638 531 638c74.667 0 141.167 -9.83301 199.5 -29.5s107.166 -46.834 146.499 -81.501s71.666 -77.334 96.999 -128.001s43.666 -105.667 54.999 -165s17 -124.666 17 -195.999v-106h-348v126c0 31.333 -0.833008 58.833 -2.5 82.5
s-5.83398 50 -12.501 79s-15.667 52.833 -27 71.5s-27.666 34.334 -48.999 47.001s-46.666 19 -75.999 19c-111.333 0 -167 -88.667 -167 -266v-777c0 -176.667 55.667 -265 167 -265c110.667 0 166 91.667 166 275v144h-206v261h570v-926h-250l-46 126
c-30.667 -48 -74.334 -86.833 -131.001 -116.5s-115 -44.5 -175 -44.5c-64.667 0 -123.5 11.833 -176.5 35.5s-96.667 55 -131 94s-63.166 84.833 -86.499 137.5s-40 106.5 -50 161.5s-15 111.5 -15 169.5zM266.002 1937l201 406h290l206 -406h-275l-75 202l-73 -202h-274z
" />
    <glyph glyph-name="gcircumflex" unicode="&#x11d;" horiz-adv-x="965" 
d="M358 79h-24c-30 -47.333 -45 -89 -45 -125c0 -39.333 74 -59 222 -59h6c76 -0.666992 114 22 114 68c0 16 -4.33301 30.5 -13 43.5s-21.5 23.5 -38.5 31.5s-33.833 14.667 -50.5 20s-37 9.33301 -61 12s-43.167 4.66699 -57.5 6s-31.833 2.33301 -52.5 3zM462 632
c54.667 0 82.0039 77.335 82.0039 232.002c0 158.667 -25.667 238 -77 238c-12.667 0 -23.834 -3.33301 -33.501 -10s-17.334 -16.834 -23.001 -30.501s-10.334 -27.667 -14.001 -42s-6.33398 -32.333 -8.00098 -54s-2.66699 -40.334 -3 -56.001s-0.5 -35.167 -0.5 -58.5
c0 -146 25.667 -219 77 -219zM328.004 339.002c0 -16 11.498 -29.335 34.498 -40.002s52.833 -19.5 89.5 -26.5s77.167 -14.167 121.5 -21.5s88.833 -16.833 133.5 -28.5s85.334 -25.834 122.001 -42.501s66.5 -40 89.5 -70s34.5 -65 34.5 -105
c0 -55.333 -8.16699 -103.833 -24.5 -145.5s-38 -75 -65 -100s-60.5 -45.167 -100.5 -60.5s-80.667 -25.833 -122 -31.5s-87.333 -8.5 -138 -8.5c-320.667 0 -481 78.333 -481 235c0 46 12.667 91.833 38 137.5s58.333 83.167 99 112.5
c-27.333 14 -53.666 30.5 -78.999 49.5s-38 37.167 -38 54.5c0 38 44.333 113.333 133 226c-68 124 -102 248.667 -102 374c0 64 7.5 124.167 22.5 180.5s37.833 107.833 68.5 154.5s72.167 83.667 124.5 111s112.833 41 181.5 41c102.667 0 180 -27.667 232 -83
c48.667 55.333 130.334 83 245.001 83h42l-28 -241c-66 0 -113.667 -14.667 -143 -44c28 -50 42 -125.667 42 -227c0 -59.333 -8.83301 -115.666 -26.5 -168.999s-43 -100.666 -76 -141.999s-75.333 -74 -127 -98s-108.834 -36 -171.501 -36c-12 0 -27 1.33301 -45 4
s-33 5.33398 -45 8.00098l-18 3c-15.333 -30 -23 -48 -23 -54zM157.002 1437l201 406h290l206 -406h-275l-75 202l-73 -202h-274z" />
    <glyph glyph-name="Gbreve" unicode="&#x11e;" horiz-adv-x="1238" 
d="M84 563l0.00195312 634c0 425.333 177 638 531 638c74.667 0 141.167 -9.83301 199.5 -29.5s107.166 -46.834 146.499 -81.501s71.666 -77.334 96.999 -128.001s43.666 -105.667 54.999 -165s17 -124.666 17 -195.999v-106h-348v126c0 31.333 -0.833008 58.833 -2.5 82.5
s-5.83398 50 -12.501 79s-15.667 52.833 -27 71.5s-27.666 34.334 -48.999 47.001s-46.666 19 -75.999 19c-111.333 0 -167 -88.667 -167 -266v-777c0 -176.667 55.667 -265 167 -265c110.667 0 166 91.667 166 275v144h-206v261h570v-926h-250l-46 126
c-30.667 -48 -74.334 -86.833 -131.001 -116.5s-115 -44.5 -175 -44.5c-64.667 0 -123.5 11.833 -176.5 35.5s-96.667 55 -131 94s-63.166 84.833 -86.499 137.5s-40 106.5 -50 161.5s-15 111.5 -15 169.5zM361.002 2185h171.998c0 -18.667 2.33301 -37 7 -55
s13.334 -34.5 26.001 -49.5s28.667 -22.5 48 -22.5s35.333 7.5 48 22.5s21.334 31.5 26.001 49.5s7 36.333 7 55h172c0 -73.333 -23.667 -133 -71 -179s-108 -69 -182 -69s-134.667 23 -182 69s-71 105.667 -71 179z" />
    <glyph glyph-name="gbreve" unicode="&#x11f;" horiz-adv-x="965" 
d="M358 79h-24c-30 -47.333 -45 -89 -45 -125c0 -39.333 74 -59 222 -59h6c76 -0.666992 114 22 114 68c0 16 -4.33301 30.5 -13 43.5s-21.5 23.5 -38.5 31.5s-33.833 14.667 -50.5 20s-37 9.33301 -61 12s-43.167 4.66699 -57.5 6s-31.833 2.33301 -52.5 3zM462 632
c54.667 0 82.0039 77.335 82.0039 232.002c0 158.667 -25.667 238 -77 238c-12.667 0 -23.834 -3.33301 -33.501 -10s-17.334 -16.834 -23.001 -30.501s-10.334 -27.667 -14.001 -42s-6.33398 -32.333 -8.00098 -54s-2.66699 -40.334 -3 -56.001s-0.5 -35.167 -0.5 -58.5
c0 -146 25.667 -219 77 -219zM328.004 339.002c0 -16 11.498 -29.335 34.498 -40.002s52.833 -19.5 89.5 -26.5s77.167 -14.167 121.5 -21.5s88.833 -16.833 133.5 -28.5s85.334 -25.834 122.001 -42.501s66.5 -40 89.5 -70s34.5 -65 34.5 -105
c0 -55.333 -8.16699 -103.833 -24.5 -145.5s-38 -75 -65 -100s-60.5 -45.167 -100.5 -60.5s-80.667 -25.833 -122 -31.5s-87.333 -8.5 -138 -8.5c-320.667 0 -481 78.333 -481 235c0 46 12.667 91.833 38 137.5s58.333 83.167 99 112.5
c-27.333 14 -53.666 30.5 -78.999 49.5s-38 37.167 -38 54.5c0 38 44.333 113.333 133 226c-68 124 -102 248.667 -102 374c0 64 7.5 124.167 22.5 180.5s37.833 107.833 68.5 154.5s72.167 83.667 124.5 111s112.833 41 181.5 41c102.667 0 180 -27.667 232 -83
c48.667 55.333 130.334 83 245.001 83h42l-28 -241c-66 0 -113.667 -14.667 -143 -44c28 -50 42 -125.667 42 -227c0 -59.333 -8.83301 -115.666 -26.5 -168.999s-43 -100.666 -76 -141.999s-75.333 -74 -127 -98s-108.834 -36 -171.501 -36c-12 0 -27 1.33301 -45 4
s-33 5.33398 -45 8.00098l-18 3c-15.333 -30 -23 -48 -23 -54zM253.002 1685h171.998c0 -18.667 2.33301 -37 7 -55s13.334 -34.5 26.001 -49.5s28.667 -22.5 48 -22.5s35.333 7.5 48 22.5s21.334 31.5 26.001 49.5s7 36.333 7 55h172c0 -73.333 -23.667 -133 -71 -179
s-108 -69 -182 -69s-134.667 23 -182 69s-71 105.667 -71 179z" />
    <glyph glyph-name="Gdotaccent" unicode="&#x120;" horiz-adv-x="1238" 
d="M84 563l0.00195312 634c0 425.333 177 638 531 638c74.667 0 141.167 -9.83301 199.5 -29.5s107.166 -46.834 146.499 -81.501s71.666 -77.334 96.999 -128.001s43.666 -105.667 54.999 -165s17 -124.666 17 -195.999v-106h-348v126c0 31.333 -0.833008 58.833 -2.5 82.5
s-5.83398 50 -12.501 79s-15.667 52.833 -27 71.5s-27.666 34.334 -48.999 47.001s-46.666 19 -75.999 19c-111.333 0 -167 -88.667 -167 -266v-777c0 -176.667 55.667 -265 167 -265c110.667 0 166 91.667 166 275v144h-206v261h570v-926h-250l-46 126
c-30.667 -48 -74.334 -86.833 -131.001 -116.5s-115 -44.5 -175 -44.5c-64.667 0 -123.5 11.833 -176.5 35.5s-96.667 55 -131 94s-63.166 84.833 -86.499 137.5s-40 106.5 -50 161.5s-15 111.5 -15 169.5zM453.002 1937v318h323v-318h-323z" />
    <glyph glyph-name="gdotaccent" unicode="&#x121;" horiz-adv-x="965" 
d="M358 79h-24c-30 -47.333 -45 -89 -45 -125c0 -39.333 74 -59 222 -59h6c76 -0.666992 114 22 114 68c0 16 -4.33301 30.5 -13 43.5s-21.5 23.5 -38.5 31.5s-33.833 14.667 -50.5 20s-37 9.33301 -61 12s-43.167 4.66699 -57.5 6s-31.833 2.33301 -52.5 3zM462 632
c54.667 0 82.0039 77.335 82.0039 232.002c0 158.667 -25.667 238 -77 238c-12.667 0 -23.834 -3.33301 -33.501 -10s-17.334 -16.834 -23.001 -30.501s-10.334 -27.667 -14.001 -42s-6.33398 -32.333 -8.00098 -54s-2.66699 -40.334 -3 -56.001s-0.5 -35.167 -0.5 -58.5
c0 -146 25.667 -219 77 -219zM328.004 339.002c0 -16 11.498 -29.335 34.498 -40.002s52.833 -19.5 89.5 -26.5s77.167 -14.167 121.5 -21.5s88.833 -16.833 133.5 -28.5s85.334 -25.834 122.001 -42.501s66.5 -40 89.5 -70s34.5 -65 34.5 -105
c0 -55.333 -8.16699 -103.833 -24.5 -145.5s-38 -75 -65 -100s-60.5 -45.167 -100.5 -60.5s-80.667 -25.833 -122 -31.5s-87.333 -8.5 -138 -8.5c-320.667 0 -481 78.333 -481 235c0 46 12.667 91.833 38 137.5s58.333 83.167 99 112.5
c-27.333 14 -53.666 30.5 -78.999 49.5s-38 37.167 -38 54.5c0 38 44.333 113.333 133 226c-68 124 -102 248.667 -102 374c0 64 7.5 124.167 22.5 180.5s37.833 107.833 68.5 154.5s72.167 83.667 124.5 111s112.833 41 181.5 41c102.667 0 180 -27.667 232 -83
c48.667 55.333 130.334 83 245.001 83h42l-28 -241c-66 0 -113.667 -14.667 -143 -44c28 -50 42 -125.667 42 -227c0 -59.333 -8.83301 -115.666 -26.5 -168.999s-43 -100.666 -76 -141.999s-75.333 -74 -127 -98s-108.834 -36 -171.501 -36c-12 0 -27 1.33301 -45 4
s-33 5.33398 -45 8.00098l-18 3c-15.333 -30 -23 -48 -23 -54zM344.002 1437v318h323v-318h-323z" />
    <glyph glyph-name="Gcommaaccent" unicode="&#x122;" horiz-adv-x="1238" 
d="M84 563l0.00195312 634c0 425.333 177 638 531 638c74.667 0 141.167 -9.83301 199.5 -29.5s107.166 -46.834 146.499 -81.501s71.666 -77.334 96.999 -128.001s43.666 -105.667 54.999 -165s17 -124.666 17 -195.999v-106h-348v126c0 31.333 -0.833008 58.833 -2.5 82.5
s-5.83398 50 -12.501 79s-15.667 52.833 -27 71.5s-27.666 34.334 -48.999 47.001s-46.666 19 -75.999 19c-111.333 0 -167 -88.667 -167 -266v-777c0 -176.667 55.667 -265 167 -265c110.667 0 166 91.667 166 275v144h-206v261h570v-926h-250l-46 126
c-30.667 -48 -74.334 -86.833 -131.001 -116.5s-115 -44.5 -175 -44.5c-64.667 0 -123.5 11.833 -176.5 35.5s-96.667 55 -131 94s-63.166 84.833 -86.499 137.5s-40 106.5 -50 161.5s-15 111.5 -15 169.5zM521.002 -698l-39.998 166h15
c17.333 0 29.166 0.166992 35.499 0.5s12.5 3.33301 18.5 9s9.5 13.167 10.5 22.5s1.5 24.333 1.5 45h-110v318h323c0 -26 0.333008 -64 1 -114v-149c0 -46 -3.33301 -87.667 -10 -125s-17.167 -69 -31.5 -95s-35.5 -46.167 -63.5 -60.5s-63.333 -21.5 -106 -21.5
c-10.667 0 -25.334 1.33301 -44.001 4z" />
    <glyph glyph-name="gcommaaccent" unicode="&#x123;" horiz-adv-x="965" 
d="M574 1980l39.998 -165.999h-15c-17.333 0 -29.166 -0.166992 -35.499 -0.5s-12.5 -3.33301 -18.5 -9s-9.5 -13.167 -10.5 -22.5s-1.5 -24.333 -1.5 -45h110v-318h-323c-3.33301 86.667 -3.5 164.667 -0.5 234s10.833 128.166 23.5 176.499s37.834 85.5 75.501 111.5
s89.5 39 155.5 39zM357.998 79.001h-24c-30 -47.333 -45 -89 -45 -125c0 -39.333 74 -59 222 -59h6c76 -0.666992 114 22 114 68c0 16 -4.33301 30.5 -13 43.5s-21.5 23.5 -38.5 31.5s-33.833 14.667 -50.5 20s-37 9.33301 -61 12s-43.167 4.66699 -57.5 6
s-31.833 2.33301 -52.5 3zM461.998 632.001c54.667 0 82.0039 77.335 82.0039 232.002c0 158.667 -25.667 238 -77 238c-12.667 0 -23.834 -3.33301 -33.501 -10s-17.334 -16.834 -23.001 -30.501s-10.334 -27.667 -14.001 -42s-6.33398 -32.333 -8.00098 -54
s-2.66699 -40.334 -3 -56.001s-0.5 -35.167 -0.5 -58.5c0 -146 25.667 -219 77 -219zM328.002 339.003c0 -16 11.498 -29.335 34.498 -40.002s52.833 -19.5 89.5 -26.5s77.167 -14.167 121.5 -21.5s88.833 -16.833 133.5 -28.5s85.334 -25.834 122.001 -42.501
s66.5 -40 89.5 -70s34.5 -65 34.5 -105c0 -55.333 -8.16699 -103.833 -24.5 -145.5s-38 -75 -65 -100s-60.5 -45.167 -100.5 -60.5s-80.667 -25.833 -122 -31.5s-87.333 -8.5 -138 -8.5c-320.667 0 -481 78.333 -481 235c0 46 12.667 91.833 38 137.5
s58.333 83.167 99 112.5c-27.333 14 -53.666 30.5 -78.999 49.5s-38 37.167 -38 54.5c0 38 44.333 113.333 133 226c-68 124 -102 248.667 -102 374c0 64 7.5 124.167 22.5 180.5s37.833 107.833 68.5 154.5s72.167 83.667 124.5 111s112.833 41 181.5 41
c102.667 0 180 -27.667 232 -83c48.667 55.333 130.334 83 245.001 83h42l-28 -241c-66 0 -113.667 -14.667 -143 -44c28 -50 42 -125.667 42 -227c0 -59.333 -8.83301 -115.666 -26.5 -168.999s-43 -100.666 -76 -141.999s-75.333 -74 -127 -98s-108.834 -36 -171.501 -36
c-12 0 -27 1.33301 -45 4s-33 5.33398 -45 8.00098l-18 3c-15.333 -30 -23 -48 -23 -54z" />
    <glyph glyph-name="Hcircumflex" unicode="&#x124;" horiz-adv-x="1257" 
d="M165 0v1797h324v-741h280v741h325v-1797h-325v801h-280v-801h-324zM281 1859l204 441h289l206 -441h-278l-73 171l-73 -171h-275z" />
    <glyph glyph-name="hcircumflex" unicode="&#x125;" horiz-adv-x="1005" 
d="M94 0l-0.00195312 1800h337v-588c32.667 36.667 71.5 66.334 116.5 89.001s91.5 34 139.5 34c46 0 87.167 -14.667 123.5 -44s63.333 -65.333 81 -108s26.5 -86.667 26.5 -132v-1051h-337v963c0 2.66699 0.166992 8.5 0.5 17.5s0.333008 16.333 0 22
s-0.666016 13 -0.999023 22s-1.5 16.167 -3.5 21.5s-4.66699 11 -8 17s-7.83301 10.333 -13.5 13s-12.5 4 -20.5 4c-13.333 0 -27.666 -5.33301 -42.999 -16s-26.333 -19.667 -33 -27l-28 -32v-1005h-337zM156.998 1902l201 406h290l206 -406h-275l-75 202l-73 -202h-274z
" />
    <glyph glyph-name="Hbar" unicode="&#x126;" horiz-adv-x="1185" 
d="M461 1062h261v273h-261v-273zM97 0v1335h-101v115h101v350h364v-350h261v350h366v-350h100v-115h-100v-1335h-366v803h-261v-803h-364z" />
    <glyph glyph-name="hbar" unicode="&#x127;" horiz-adv-x="983" 
d="M99 0l-0.00195312 1460h-99v183h99v157h337v-157h282v-183h-282v-248c32.667 36.667 71.5 66.334 116.5 89.001s91.5 34 139.5 34c46 0 87.167 -14.667 123.5 -44s63.333 -65.333 81 -108s26.5 -86.667 26.5 -132v-1051h-337v963c0 2.66699 0.166992 8.5 0.5 17.5
s0.333008 16.333 0 22s-0.666016 13 -0.999023 22s-1.5 16.167 -3.5 21.5s-4.66699 11 -8 17s-7.83301 10.333 -13.5 13s-12.5 4 -20.5 4c-13.333 0 -27.666 -5.33301 -42.999 -16s-26.333 -19.667 -33 -27l-28 -32v-1005h-337z" />
    <glyph glyph-name="Itilde" unicode="&#x128;" horiz-adv-x="578" 
d="M107 0v1800h364v-1800h-364zM118 1948h-167.001c0 34 1.16699 64 3.5 90s7.5 52.667 15.5 80s18.5 50 31.5 68s30.833 32.667 53.5 44s49.667 17 81 17c48.667 0 107.167 -9.66699 175.5 -29s110.166 -29 125.499 -29c10.667 0 18.834 2.5 24.501 7.5
s8.83398 10 9.50098 15s1 12.833 1 23.5h155c0 -198.667 -52 -298 -156 -298c-33.333 0 -84.5 12.167 -153.5 36.5s-119.167 36.5 -150.5 36.5c-10 0 -18.333 -1.5 -25 -4.5s-11.5 -5.83301 -14.5 -8.5s-5.33301 -8 -7 -16s-2.5 -13 -2.5 -15v-18z" />
    <glyph glyph-name="itilde" unicode="&#x129;" horiz-adv-x="532" 
d="M124 0v1305h337v-1305h-337zM92 1430h-167.001c0 34 1.16699 64 3.5 90s7.5 52.667 15.5 80s18.5 50 31.5 68s30.833 32.667 53.5 44s49.667 17 81 17c48.667 0 107.167 -9.66699 175.5 -29s110.166 -29 125.499 -29c10.667 0 18.834 2.5 24.501 7.5
s8.83398 10 9.50098 15s1 12.833 1 23.5h155c0 -198.667 -52 -298 -156 -298c-33.333 0 -84.5 12.167 -153.5 36.5s-119.167 36.5 -150.5 36.5c-10 0 -18.333 -1.5 -25 -4.5s-11.5 -5.83301 -14.5 -8.5s-5.33301 -8 -7 -16s-2.5 -13 -2.5 -15v-18z" />
    <glyph glyph-name="Imacron" unicode="&#x12a;" horiz-adv-x="578" 
d="M107 0v1800h364v-1800h-364zM36 1937v193h507v-193h-507z" />
    <glyph glyph-name="imacron" unicode="&#x12b;" horiz-adv-x="532" 
d="M124 0v1305h337v-1305h-337zM12 1457v193h507v-193h-507z" />
    <glyph glyph-name="Ibreve" unicode="&#x12c;" horiz-adv-x="578" 
d="M107 0v1800h364v-1800h-364zM36 2185h171.998c0 -18.667 2.33301 -37 7 -55s13.334 -34.5 26.001 -49.5s28.667 -22.5 48 -22.5s35.333 7.5 48 22.5s21.334 31.5 26.001 49.5s7 36.333 7 55h172c0 -73.333 -23.667 -133 -71 -179s-108 -69 -182 -69s-134.667 23 -182 69
s-71 105.667 -71 179z" />
    <glyph glyph-name="ibreve" unicode="&#x12d;" horiz-adv-x="532" 
d="M124 0v1305h337v-1305h-337zM39 1684h171.998c0 -18.667 2.33301 -37 7 -55s13.334 -34.5 26.001 -49.5s28.667 -22.5 48 -22.5s35.333 7.5 48 22.5s21.334 31.5 26.001 49.5s7 36.333 7 55h172c0 -73.333 -23.667 -133 -71 -179s-108 -69 -182 -69s-134.667 23 -182 69
s-71 105.667 -71 179z" />
    <glyph glyph-name="Iogonek" unicode="&#x12e;" horiz-adv-x="578" 
d="M107 0v1800h364v-1800h-364zM484 -356l-20.999 -160.002c-27.333 -2 -56.166 -2 -86.499 0s-60.166 4.5 -89.499 7.5s-57.5 9.83301 -84.5 20.5s-50.833 23.667 -71.5 39s-37 36.5 -49 63.5s-18 57.833 -18 92.5c0 52 14.667 106.833 44 164.5s65 106.5 107 146.5h148
c-4.66699 -13.333 -12.334 -33.833 -23.001 -61.5l-25 -66c-6 -16.333 -11.5 -36.666 -16.5 -60.999s-7.5 -47.166 -7.5 -68.499c0 -18.667 2.66699 -35.167 8 -49.5s13.833 -25.5 25.5 -33.5s22.667 -14.5 33 -19.5s24.666 -8.5 42.999 -10.5s32.166 -3.16699 41.499 -3.5
s23.333 -0.5 42 -0.5z" />
    <glyph glyph-name="iogonek" unicode="&#x12f;" horiz-adv-x="529" 
d="M96 1419v315h337v-315h-337zM96 0v1305h337v-1305h-337zM520 -358l-20.999 -160.002c-27.333 -2 -56.166 -2 -86.499 0s-60.166 4.5 -89.499 7.5s-57.5 9.83301 -84.5 20.5s-50.833 23.667 -71.5 39s-37 36.5 -49 63.5s-18 57.833 -18 92.5c0 52 14.667 106.833 44 164.5
s65 106.5 107 146.5h148c-4.66699 -13.333 -12.334 -33.833 -23.001 -61.5l-25 -66c-6 -16.333 -11.5 -36.666 -16.5 -60.999s-7.5 -47.166 -7.5 -68.499c0 -18.667 2.66699 -35.167 8 -49.5s13.833 -25.5 25.5 -33.5s22.667 -14.5 33 -19.5s24.666 -8.5 42.999 -10.5
s32.166 -3.16699 41.499 -3.5s23.333 -0.5 42 -0.5z" />
    <glyph glyph-name="Idotaccent" unicode="&#x130;" horiz-adv-x="578" 
d="M107 0v1800h364v-1800h-364zM128 1937v318h323v-318h-323z" />
    <glyph glyph-name="dotlessi" unicode="&#x131;" horiz-adv-x="532" 
d="M124 0v1305h337v-1305h-337z" />
    <glyph glyph-name="IJ" unicode="&#x132;" horiz-adv-x="1269" 
d="M578 -34l-0.000976562 255.999c88 -1.33301 146.667 11.834 176 39.501s44 85.5 44 173.5v1365h364v-1368c0 -66 -3.16699 -122.167 -9.5 -168.5s-18.166 -89.333 -35.499 -129s-41 -71.167 -71 -94.5s-68.833 -41.5 -116.5 -54.5s-105.167 -19.5 -172.5 -19.5h-179z
M106.999 -0.000976562v1800h364v-1800h-364z" />
    <glyph glyph-name="ij" unicode="&#x133;" horiz-adv-x="1101" 
d="M672 1419v315h335v-315h-335zM508 -284l0.000976562 244c37.333 -10.667 66.666 -16 87.999 -16c50.667 0 76 37 76 111v1250h335v-1279c0 -104.667 -27.5 -187 -82.5 -247s-134.167 -90 -237.5 -90c-50 0 -109.667 9 -179 27zM96.001 1419v315h337v-315h-337zM96.001 0
v1305h337v-1305h-337z" />
    <glyph glyph-name="Jcircumflex" unicode="&#x134;" horiz-adv-x="691" 
d="M0 -34l-0.000976562 255.999c88 -1.33301 146.667 11.834 176 39.501s44 85.5 44 173.5v1365h364v-1368c0 -66 -3.16699 -122.167 -9.5 -168.5s-18.166 -89.333 -35.499 -129s-41 -71.167 -71 -94.5s-68.833 -41.5 -116.5 -54.5s-105.167 -19.5 -172.5 -19.5h-179z
M42.999 1937l201 406h290l206 -406h-275l-75 202l-73 -202h-274z" />
    <glyph glyph-name="jcircumflex" unicode="&#x135;" horiz-adv-x="641" 
d="M48 -284l0.000976562 244c37.333 -10.667 66.666 -16 87.999 -16c50.667 0 76 37 76 111v1250h335v-1279c0 -104.667 -27.5 -187 -82.5 -247s-134.167 -90 -237.5 -90c-50 0 -109.667 9 -179 27zM31.001 1380l201 406h290l206 -406h-275l-75 202l-73 -202h-274z" />
    <glyph glyph-name="Kcommaaccent" unicode="&#x136;" horiz-adv-x="1187" 
d="M107 0v1800h364v-683l282 683h407l-367 -737l394 -1063h-378l-272 823l-66 -170v-653h-364zM554 -663l-39.998 166h15c17.333 0 29.166 0.166992 35.499 0.5s12.5 3.33301 18.5 9s9.5 13.167 10.5 22.5s1.5 24.333 1.5 45h-110v318h323c0 -26 0.333008 -64 1 -114v-149
c0 -46 -3.33301 -87.667 -10 -125s-17.167 -69 -31.5 -95s-35.5 -46.167 -63.5 -60.5s-63.333 -21.5 -106 -21.5c-10.667 0 -25.334 1.33301 -44.001 4z" />
    <glyph glyph-name="kcommaaccent" unicode="&#x137;" horiz-adv-x="1001" 
d="M99 0v1800h337v-948l206 453h361l-321 -551l320 -754h-349l-172 582l-45 -76v-506h-337z" />
    <glyph glyph-name="kgreenlandic" unicode="&#x138;" horiz-adv-x="1011" 
d="M99 0v1305h337v-423l206 423h331l-271 -561l270 -744h-339l-162 502l-35 -59v-443h-337z" />
    <glyph glyph-name="Lacute" unicode="&#x139;" horiz-adv-x="852" 
d="M107 0v1800h364v-1550h358v-250h-722zM366 1937l136 442h345l-277 -442h-204z" />
    <glyph glyph-name="lacute" unicode="&#x13a;" horiz-adv-x="529" 
d="M96 0v1800h337v-1800h-337zM163 1902l136 442h345l-277 -442h-204z" />
    <glyph glyph-name="Lcommaaccent" unicode="&#x13b;" horiz-adv-x="852" 
d="M107 0v1800h364v-1550h358v-250h-722zM375 -663l-39.998 166h15c17.333 0 29.166 0.166992 35.499 0.5s12.5 3.33301 18.5 9s9.5 13.167 10.5 22.5s1.5 24.333 1.5 45h-110v318h323c0 -26 0.333008 -64 1 -114v-149c0 -46 -3.33301 -87.667 -10 -125
s-17.167 -69 -31.5 -95s-35.5 -46.167 -63.5 -60.5s-63.333 -21.5 -106 -21.5c-10.667 0 -25.334 1.33301 -44.001 4z" />
    <glyph glyph-name="lcommaaccent" unicode="&#x13c;" horiz-adv-x="529" 
d="M96 0v1800h337v-1800h-337zM171 -663l-39.998 166h15c17.333 0 29.166 0.166992 35.499 0.5s12.5 3.33301 18.5 9s9.5 13.167 10.5 22.5s1.5 24.333 1.5 45h-110v318h323c0 -26 0.333008 -64 1 -114v-149c0 -46 -3.33301 -87.667 -10 -125s-17.167 -69 -31.5 -95
s-35.5 -46.167 -63.5 -60.5s-63.333 -21.5 -106 -21.5c-10.667 0 -25.334 1.33301 -44.001 4z" />
    <glyph glyph-name="Lcaron" unicode="&#x13d;" horiz-adv-x="852" 
d="M107 0v1800h364v-1550h358v-250h-722zM731 1274l-39.999 166.003h15c17.333 0 29.166 0.166992 35.499 0.5s12.5 3.33301 18.5 9s9.5 13.167 10.5 22.5s1.5 24.333 1.5 45h-110v318h323v-88c0.666992 -76.667 0.5 -133.334 -0.5 -170.001s-5.5 -80.834 -13.5 -132.501
s-20.667 -88 -38 -109s-42.833 -38.333 -76.5 -52s-75.5 -16.834 -125.5 -9.50098z" />
    <glyph glyph-name="lcaron" unicode="&#x13e;" horiz-adv-x="529" 
d="M96 0v1800h337v-1800h-337zM655 1239l-39.999 166.003h15c17.333 0 29.166 0.166992 35.499 0.5s12.5 3.33301 18.5 9s9.5 13.167 10.5 22.5s1.5 24.333 1.5 45h-110v318h323v-88c0.666992 -76.667 0.5 -133.334 -0.5 -170.001s-5.5 -80.834 -13.5 -132.501
s-20.667 -88 -38 -109s-42.833 -38.333 -76.5 -52s-75.5 -16.834 -125.5 -9.50098z" />
    <glyph glyph-name="Ldot" unicode="&#x13f;" horiz-adv-x="852" 
d="M107 0v1800h364v-1550h358v-250h-722zM627 760v315h323v-315h-323z" />
    <glyph glyph-name="ldot" unicode="&#x140;" horiz-adv-x="529" 
d="M96 0v1800h337v-1800h-337zM600 679v315h323v-315h-323z" />
    <glyph glyph-name="Lslash" unicode="&#x141;" horiz-adv-x="855" 
d="M97 0v887l-82 -31v183l82 31v730h364v-593l257 98v-183l-257 -98v-774h358v-250h-722z" />
    <glyph glyph-name="lslash" unicode="&#x142;" horiz-adv-x="629" 
d="M163 0v924l-181 -68v183l181 68v693h337v-565l186 70v-183l-186 -70v-1052h-337z" />
    <glyph glyph-name="Nacute" unicode="&#x143;" horiz-adv-x="1173" 
d="M107 0v1801h262l395 -942v942h302v-1801h-252l-394 999v-999h-313zM485 1937l136 442h345l-277 -442h-204z" />
    <glyph glyph-name="nacute" unicode="&#x144;" horiz-adv-x="1005" 
d="M94 0l-0.000976562 1305h337v-92c32 36.667 70.5 66 115.5 88s91.833 33 140.5 33c46 0 87.167 -14.5 123.5 -43.5s63.333 -64.667 81 -107s26.5 -86.166 26.5 -131.499v-1052h-337v993c0 58 -18.667 87 -56 87c-4 0 -8.16699 -0.5 -12.5 -1.5
s-8.66602 -2.66699 -12.999 -5l-11.5 -6c-3.33301 -1.66699 -7.33301 -4.5 -12 -8.5l-10.5 -9c-2.33301 -2 -5.83301 -5.5 -10.5 -10.5s-7.66699 -8.33301 -9 -10s-4 -4.83398 -8 -9.50098l-7 -8v-1012h-337zM403.999 1436l136 442h345l-277 -442h-204z" />
    <glyph glyph-name="Ncommaaccent" unicode="&#x145;" horiz-adv-x="1173" 
d="M107 0v1801h262l395 -942v942h302v-1801h-252l-394 999v-999h-313zM493 -663l-39.998 166h15c17.333 0 29.166 0.166992 35.499 0.5s12.5 3.33301 18.5 9s9.5 13.167 10.5 22.5s1.5 24.333 1.5 45h-110v318h323c0 -26 0.333008 -64 1 -114v-149
c0 -46 -3.33301 -87.667 -10 -125s-17.167 -69 -31.5 -95s-35.5 -46.167 -63.5 -60.5s-63.333 -21.5 -106 -21.5c-10.667 0 -25.334 1.33301 -44.001 4z" />
    <glyph glyph-name="ncommaaccent" unicode="&#x146;" horiz-adv-x="1005" 
d="M94 0l-0.000976562 1305h337v-92c32 36.667 70.5 66 115.5 88s91.833 33 140.5 33c46 0 87.167 -14.5 123.5 -43.5s63.333 -64.667 81 -107s26.5 -86.166 26.5 -131.499v-1052h-337v993c0 58 -18.667 87 -56 87c-4 0 -8.16699 -0.5 -12.5 -1.5
s-8.66602 -2.66699 -12.999 -5l-11.5 -6c-3.33301 -1.66699 -7.33301 -4.5 -12 -8.5l-10.5 -9c-2.33301 -2 -5.83301 -5.5 -10.5 -10.5s-7.66699 -8.33301 -9 -10s-4 -4.83398 -8 -9.50098l-7 -8v-1012h-337zM412.999 -663l-39.998 166h15
c17.333 0 29.166 0.166992 35.499 0.5s12.5 3.33301 18.5 9s9.5 13.167 10.5 22.5s1.5 24.333 1.5 45h-110v318h323c0 -26 0.333008 -64 1 -114v-149c0 -46 -3.33301 -87.667 -10 -125s-17.167 -69 -31.5 -95s-35.5 -46.167 -63.5 -60.5s-63.333 -21.5 -106 -21.5
c-10.667 0 -25.334 1.33301 -44.001 4z" />
    <glyph glyph-name="Ncaron" unicode="&#x147;" horiz-adv-x="1173" 
d="M107 0v1801h262l395 -942v942h302v-1801h-252l-394 999v-999h-313zM439 1937l-201 406h274l73 -201l75 201h275l-206 -406h-290z" />
    <glyph glyph-name="ncaron" unicode="&#x148;" horiz-adv-x="1005" 
d="M94 0l-0.000976562 1305h337v-92c32 36.667 70.5 66 115.5 88s91.833 33 140.5 33c46 0 87.167 -14.5 123.5 -43.5s63.333 -64.667 81 -107s26.5 -86.166 26.5 -131.499v-1052h-337v993c0 58 -18.667 87 -56 87c-4 0 -8.16699 -0.5 -12.5 -1.5
s-8.66602 -2.66699 -12.999 -5l-11.5 -6c-3.33301 -1.66699 -7.33301 -4.5 -12 -8.5l-10.5 -9c-2.33301 -2 -5.83301 -5.5 -10.5 -10.5s-7.66699 -8.33301 -9 -10s-4 -4.83398 -8 -9.50098l-7 -8v-1012h-337zM358.999 1436l-201 406h274l73 -201l75 201h275l-206 -406h-290z
" />
    <glyph glyph-name="Omacron" unicode="&#x14c;" horiz-adv-x="1221" 
d="M84 592l0.00292969 604.999c0 425.333 175.333 638 526 638c351.333 0 527 -212.667 527 -638v-596c0 -72 -5.33301 -138.5 -16 -199.5s-28.834 -118.833 -54.501 -173.5s-58.334 -101.167 -98.001 -139.5s-89.834 -68.5 -150.501 -90.5s-130 -33 -208 -33
c-77.333 0 -146.333 10.833 -207 32.5s-110.667 51 -150 88s-71.833 82.333 -97.5 136s-44 110.834 -55 171.501s-16.5 127 -16.5 199zM773.003 509.999l0.00195312 778c0 177.333 -54.333 266 -163 266c-32.667 0 -60.334 -8.16699 -83.001 -24.5
s-39.334 -38.666 -50.001 -66.999s-18.167 -56.333 -22.5 -84s-6.5 -57.834 -6.5 -90.501v-778c0 -176.667 54 -265 162 -265c108.667 0 163 88.333 163 265zM357.005 1937v193h507v-193h-507z" />
    <glyph glyph-name="omacron" unicode="&#x14d;" horiz-adv-x="973" 
d="M561 335v646.001c0 66 -25.667 99 -77 99c-46 0 -69 -33 -69 -99v-646c0 -14.667 0.5 -26.834 1.5 -36.501s3.5 -21 7.5 -34s11 -22.833 21 -29.5s23 -10 39 -10c51.333 0 77 36.667 77 110zM78 339.001l0.00195312 555c0 139.333 32.833 247.5 98.5 324.5
s168.167 115.5 307.5 115.5s242.666 -38.5 309.999 -115.5s101 -185.167 101 -324.5v-555c0 -108.667 -40.333 -197.167 -121 -265.5s-177.334 -102.5 -290.001 -102.5c-72.667 0 -139.667 14.833 -201 44.5s-110.833 73 -148.5 130s-56.5 121.5 -56.5 193.5zM233.002 1436
v193h507v-193h-507z" />
    <glyph glyph-name="Obreve" unicode="&#x14e;" horiz-adv-x="1221" 
d="M84 592l0.00292969 604.999c0 425.333 175.333 638 526 638c351.333 0 527 -212.667 527 -638v-596c0 -72 -5.33301 -138.5 -16 -199.5s-28.834 -118.833 -54.501 -173.5s-58.334 -101.167 -98.001 -139.5s-89.834 -68.5 -150.501 -90.5s-130 -33 -208 -33
c-77.333 0 -146.333 10.833 -207 32.5s-110.667 51 -150 88s-71.833 82.333 -97.5 136s-44 110.834 -55 171.501s-16.5 127 -16.5 199zM773.003 509.999l0.00195312 778c0 177.333 -54.333 266 -163 266c-32.667 0 -60.334 -8.16699 -83.001 -24.5
s-39.334 -38.666 -50.001 -66.999s-18.167 -56.333 -22.5 -84s-6.5 -57.834 -6.5 -90.501v-778c0 -176.667 54 -265 162 -265c108.667 0 163 88.333 163 265zM357.005 2185h171.998c0 -18.667 2.33301 -37 7 -55s13.334 -34.5 26.001 -49.5s28.667 -22.5 48 -22.5
s35.333 7.5 48 22.5s21.334 31.5 26.001 49.5s7 36.333 7 55h172c0 -73.333 -23.667 -133 -71 -179s-108 -69 -182 -69s-134.667 23 -182 69s-71 105.667 -71 179z" />
    <glyph glyph-name="obreve" unicode="&#x14f;" horiz-adv-x="973" 
d="M561 335v646.001c0 66 -25.667 99 -77 99c-46 0 -69 -33 -69 -99v-646c0 -14.667 0.5 -26.834 1.5 -36.501s3.5 -21 7.5 -34s11 -22.833 21 -29.5s23 -10 39 -10c51.333 0 77 36.667 77 110zM78 339.001l0.00195312 555c0 139.333 32.833 247.5 98.5 324.5
s168.167 115.5 307.5 115.5s242.666 -38.5 309.999 -115.5s101 -185.167 101 -324.5v-555c0 -108.667 -40.333 -197.167 -121 -265.5s-177.334 -102.5 -290.001 -102.5c-72.667 0 -139.667 14.833 -201 44.5s-110.833 73 -148.5 130s-56.5 121.5 -56.5 193.5zM233.002 1684
h171.998c0 -18.667 2.33301 -37 7 -55s13.334 -34.5 26.001 -49.5s28.667 -22.5 48 -22.5s35.333 7.5 48 22.5s21.334 31.5 26.001 49.5s7 36.333 7 55h172c0 -73.333 -23.667 -133 -71 -179s-108 -69 -182 -69s-134.667 23 -182 69s-71 105.667 -71 179z" />
    <glyph glyph-name="Ohungarumlaut" unicode="&#x150;" horiz-adv-x="1221" 
d="M84 592l0.00292969 604.999c0 425.333 175.333 638 526 638c351.333 0 527 -212.667 527 -638v-596c0 -72 -5.33301 -138.5 -16 -199.5s-28.834 -118.833 -54.501 -173.5s-58.334 -101.167 -98.001 -139.5s-89.834 -68.5 -150.501 -90.5s-130 -33 -208 -33
c-77.333 0 -146.333 10.833 -207 32.5s-110.667 51 -150 88s-71.833 82.333 -97.5 136s-44 110.834 -55 171.501s-16.5 127 -16.5 199zM773.003 509.999l0.00195312 778c0 177.333 -54.333 266 -163 266c-32.667 0 -60.334 -8.16699 -83.001 -24.5
s-39.334 -38.666 -50.001 -66.999s-18.167 -56.333 -22.5 -84s-6.5 -57.834 -6.5 -90.501v-778c0 -176.667 54 -265 162 -265c108.667 0 163 88.333 163 265zM665.005 1937l137 442h285l-215 -442h-207zM349.005 1937l137 442h283l-215 -442h-205z" />
    <glyph glyph-name="ohungarumlaut" unicode="&#x151;" horiz-adv-x="973" 
d="M561 335v646.001c0 66 -25.667 99 -77 99c-46 0 -69 -33 -69 -99v-646c0 -14.667 0.5 -26.834 1.5 -36.501s3.5 -21 7.5 -34s11 -22.833 21 -29.5s23 -10 39 -10c51.333 0 77 36.667 77 110zM78 339.001l0.00195312 555c0 139.333 32.833 247.5 98.5 324.5
s168.167 115.5 307.5 115.5s242.666 -38.5 309.999 -115.5s101 -185.167 101 -324.5v-555c0 -108.667 -40.333 -197.167 -121 -265.5s-177.334 -102.5 -290.001 -102.5c-72.667 0 -139.667 14.833 -201 44.5s-110.833 73 -148.5 130s-56.5 121.5 -56.5 193.5zM541.002 1436
l137 442h285l-215 -442h-207zM225.002 1436l137 442h283l-215 -442h-205z" />
    <glyph glyph-name="OE" unicode="&#x152;" horiz-adv-x="1555" 
d="M610 253h163.002v1284h-163c-32.667 0 -60.334 -8.16699 -83.001 -24.5s-39.334 -38.666 -50.001 -66.999s-18.167 -56.333 -22.5 -84s-6.5 -57.834 -6.5 -90.501v-753c0 -176.667 54 -265 162 -265zM84.002 609l0.000976562 571c0 70.667 5.33301 135.667 16 195
s28.667 115.666 54 168.999s57.666 98.333 96.999 135s89.5 65.834 150.5 87.501s130.5 32.5 208.5 32.5h914v-249h-387v-490h274v-256h-274v-554h387v-250h-914c-350.667 0 -526 203 -526 609z" />
    <glyph glyph-name="oe" unicode="&#x153;" horiz-adv-x="1436" 
d="M903 801h131v163c0 66 -22.333 99 -67 99c-42.667 0 -64 -33 -64 -99v-163zM566 339v625.001c0 66 -25.667 99 -77 99c-46 0 -69 -33 -69 -99v-618c0 -14.667 0.5 -26.834 1.5 -36.501s3.5 -21 7.5 -34s11 -22.833 21 -29.5s23 -10 39 -10c50 0 75.667 34.333 77 103z
M83 339.001l0.000976562 555.001c0 139.333 32.833 247.5 98.5 324.5s168.167 115.5 307.5 115.5c96 0 176.667 -26.333 242 -79c69.333 52.667 154.666 79 255.999 79c129.333 0 225.166 -38.5 287.499 -115.5s93.5 -185.167 93.5 -324.5v-270h-465v-278
c0 -73.333 21.333 -110 64 -110c46.667 0 70 49.333 70 148c0 15.333 -0.5 34.666 -1.5 57.999s-1.5 38 -1.5 44h334v-147c0 -108.667 -38.333 -197.334 -115 -266.001s-168.667 -103 -276 -103c-89.333 0 -171.333 29 -246 87c-79.333 -58 -166.666 -87 -261.999 -87
c-106.667 0 -197.667 34.333 -273 103s-113 157.334 -113 266.001z" />
    <glyph glyph-name="Racute" unicode="&#x154;" horiz-adv-x="1134" 
d="M471 1051l104.001 -0.00292969c28 0 52 9.33301 72 28s34.5 42.334 43.5 71.001s15.333 55 19 79s5.5 46.667 5.5 68s-1.5 43.333 -4.5 66s-8.33301 47.834 -16 75.501s-20.334 50.334 -38.001 68.001s-39.167 26.5 -64.5 26.5h-121v-482zM107.001 -0.00292969
l0.00292969 1800h396c90 0 169.167 -8.5 237.5 -25.5s128.166 -43.667 179.499 -80s90.333 -85.333 117 -147s40 -135.5 40 -221.5c0 -37.333 -1.33301 -70.666 -4 -99.999s-8.83398 -62.833 -18.501 -100.5s-22.834 -71 -39.501 -100s-40.667 -57.5 -72 -85.5
s-68.333 -51.333 -111 -70l282 -870h-377l-206 829h-60v-829h-364zM509.004 1937l136 442h345l-277 -442h-204z" />
    <glyph glyph-name="racute" unicode="&#x155;" horiz-adv-x="714" 
d="M94 0l0.000976562 1305h335v-106c51.333 83.333 111.333 125 180 125c19.333 0 49.666 -3.33301 90.999 -10v-284c-62 6.66699 -105.667 10 -131 10c-46 0 -80.833 -14.167 -104.5 -42.5s-35.5 -68.833 -35.5 -121.5v-876h-335zM295.001 1436l136 442h345l-277 -442h-204
z" />
    <glyph glyph-name="Rcommaaccent" unicode="&#x156;" horiz-adv-x="1134" 
d="M471 1051l104.001 -0.00292969c28 0 52 9.33301 72 28s34.5 42.334 43.5 71.001s15.333 55 19 79s5.5 46.667 5.5 68s-1.5 43.333 -4.5 66s-8.33301 47.834 -16 75.501s-20.334 50.334 -38.001 68.001s-39.167 26.5 -64.5 26.5h-121v-482zM107.001 -0.00292969
l0.00292969 1800h396c90 0 169.167 -8.5 237.5 -25.5s128.166 -43.667 179.499 -80s90.333 -85.333 117 -147s40 -135.5 40 -221.5c0 -37.333 -1.33301 -70.666 -4 -99.999s-8.83398 -62.833 -18.501 -100.5s-22.834 -71 -39.501 -100s-40.667 -57.5 -72 -85.5
s-68.333 -51.333 -111 -70l282 -870h-377l-206 829h-60v-829h-364zM517.004 -663.004l-39.998 166h15c17.333 0 29.166 0.166992 35.499 0.5s12.5 3.33301 18.5 9s9.5 13.167 10.5 22.5s1.5 24.333 1.5 45h-110v318h323c0 -26 0.333008 -64 1 -114v-149
c0 -46 -3.33301 -87.667 -10 -125s-17.167 -69 -31.5 -95s-35.5 -46.167 -63.5 -60.5s-63.333 -21.5 -106 -21.5c-10.667 0 -25.334 1.33301 -44.001 4z" />
    <glyph glyph-name="rcommaaccent" unicode="&#x157;" horiz-adv-x="714" 
d="M94 0l0.000976562 1305h335v-106c51.333 83.333 111.333 125 180 125c19.333 0 49.666 -3.33301 90.999 -10v-284c-62 6.66699 -105.667 10 -131 10c-46 0 -80.833 -14.167 -104.5 -42.5s-35.5 -68.833 -35.5 -121.5v-876h-335zM244.001 -663l-39.998 166h15
c17.333 0 29.166 0.166992 35.499 0.5s12.5 3.33301 18.5 9s9.5 13.167 10.5 22.5s1.5 24.333 1.5 45h-110v318h323c0 -26 0.333008 -64 1 -114v-149c0 -46 -3.33301 -87.667 -10 -125s-17.167 -69 -31.5 -95s-35.5 -46.167 -63.5 -60.5s-63.333 -21.5 -106 -21.5
c-10.667 0 -25.334 1.33301 -44.001 4z" />
    <glyph glyph-name="Rcaron" unicode="&#x158;" horiz-adv-x="1134" 
d="M471 1051l104.001 -0.00292969c28 0 52 9.33301 72 28s34.5 42.334 43.5 71.001s15.333 55 19 79s5.5 46.667 5.5 68s-1.5 43.333 -4.5 66s-8.33301 47.834 -16 75.501s-20.334 50.334 -38.001 68.001s-39.167 26.5 -64.5 26.5h-121v-482zM107.001 -0.00292969
l0.00292969 1800h396c90 0 169.167 -8.5 237.5 -25.5s128.166 -43.667 179.499 -80s90.333 -85.333 117 -147s40 -135.5 40 -221.5c0 -37.333 -1.33301 -70.666 -4 -99.999s-8.83398 -62.833 -18.501 -100.5s-22.834 -71 -39.501 -100s-40.667 -57.5 -72 -85.5
s-68.333 -51.333 -111 -70l282 -870h-377l-206 829h-60v-829h-364zM463.004 1937l-201 406h274l73 -201l75 201h275l-206 -406h-290z" />
    <glyph glyph-name="rcaron" unicode="&#x159;" horiz-adv-x="714" 
d="M94 0l0.000976562 1305h335v-106c51.333 83.333 111.333 125 180 125c19.333 0 49.666 -3.33301 90.999 -10v-284c-62 6.66699 -105.667 10 -131 10c-46 0 -80.833 -14.167 -104.5 -42.5s-35.5 -68.833 -35.5 -121.5v-876h-335zM249.001 1436l-201 406h274l73 -201
l75 201h275l-206 -406h-290z" />
    <glyph glyph-name="Sacute" unicode="&#x15a;" horiz-adv-x="1073" 
d="M45 515l369 70.998c0 -36.667 0.666992 -69 2 -97s4.83301 -58.5 10.5 -91.5s13.334 -60 23.001 -81s23.334 -38.667 41.001 -53s38.5 -21.5 62.5 -21.5c72 0 108 46 108 138c0 126 -71 251.333 -213 376l-113 96c-36 30 -64.667 55 -86 75s-46.5 47 -75.5 81
s-51.667 66.833 -68 98.5s-30.333 69.834 -42 114.501s-17.5 92 -17.5 142c0 146 46.333 261.5 139 346.5s215.667 127.5 369 127.5c127.333 0 235.666 -45.333 324.999 -136s134 -200 134 -328l-1 -13v-30l-376 -52c0 7.33301 0.5 18.833 1.5 34.5s1.5 28.5 1.5 38.5
c0 24 -1.66699 47 -5 69s-8.83301 44 -16.5 66s-19.5 39.5 -35.5 52.5s-35.333 19.5 -58 19.5c-40 0 -70 -15.667 -90 -47s-30 -68.333 -30 -111c0 -37.333 5.83301 -72.333 17.5 -105s29.334 -63.167 53.001 -91.5s45.5 -51.833 65.5 -70.5s46.667 -41.5 80 -68.5
s57 -46.833 71 -59.5c51.333 -45.333 94.666 -87.833 129.999 -127.5s68.666 -84.5 99.999 -134.5s54.833 -104 70.5 -162s23.5 -120.667 23.5 -188c0 -126 -45 -229.167 -135 -309.5s-199.333 -120.5 -328 -120.5c-83.333 0 -157.333 15.333 -222 46
s-116.834 72.334 -156.501 125.001s-70.167 111 -91.5 175s-33.666 132.667 -36.999 206zM440 1939l136 442h345l-277 -442h-204z" />
    <glyph glyph-name="sacute" unicode="&#x15b;" horiz-adv-x="874" 
d="M38 315l257.997 91.9961c6.66699 -20 12 -35.5 16 -46.5s10.833 -27 20.5 -48s19 -37.167 28 -48.5s20.667 -21.833 35 -31.5s29.5 -14.5 45.5 -14.5c42 0 63 24.667 63 74c0 18 -4.16699 36.5 -12.5 55.5s-17 35.333 -26 49s-24.667 31.5 -47 53.5
s-39.5 38.333 -51.5 49l-63 54l-55 47c-71.333 62 -127.333 123 -168 183s-61 126.667 -61 200c0 56.667 11.833 107.834 35.5 153.501s55.5 82.5 95.5 110.5s84.833 49.5 134.5 64.5s101.834 22.5 156.501 22.5c48.667 0 95.334 -10.333 140.001 -31
s83.834 -48.167 117.501 -82.5s62.834 -73 87.501 -116s43.667 -88.167 57 -135.5l-242 -83l-20 49.5c-5.33301 13 -13.833 30 -25.5 51s-23 37.833 -34 50.5s-24.5 23.834 -40.5 33.501s-32.667 14.5 -50 14.5c-23.333 0 -41.5 -8.33301 -54.5 -25s-19.5 -35.667 -19.5 -57
c0 -29.333 16.167 -62.166 48.5 -98.499s76.833 -78.166 133.5 -125.499l62 -55c33.333 -30 62.166 -58.167 86.499 -84.5s48.666 -56.166 72.999 -89.499s43 -68.333 56 -105s19.5 -73.334 19.5 -110.001c0 -105.333 -37.167 -192.333 -111.5 -261
s-164.166 -103 -269.499 -103c-102 0 -190 31.667 -264 95s-125.333 146.333 -154 249zM314.997 1392l136 442h345l-277 -442h-204z" />
    <glyph glyph-name="Scircumflex" unicode="&#x15c;" horiz-adv-x="1073" 
d="M45 515l369 70.998c0 -36.667 0.666992 -69 2 -97s4.83301 -58.5 10.5 -91.5s13.334 -60 23.001 -81s23.334 -38.667 41.001 -53s38.5 -21.5 62.5 -21.5c72 0 108 46 108 138c0 126 -71 251.333 -213 376l-113 96c-36 30 -64.667 55 -86 75s-46.5 47 -75.5 81
s-51.667 66.833 -68 98.5s-30.333 69.834 -42 114.501s-17.5 92 -17.5 142c0 146 46.333 261.5 139 346.5s215.667 127.5 369 127.5c127.333 0 235.666 -45.333 324.999 -136s134 -200 134 -328l-1 -13v-30l-376 -52c0 7.33301 0.5 18.833 1.5 34.5s1.5 28.5 1.5 38.5
c0 24 -1.66699 47 -5 69s-8.83301 44 -16.5 66s-19.5 39.5 -35.5 52.5s-35.333 19.5 -58 19.5c-40 0 -70 -15.667 -90 -47s-30 -68.333 -30 -111c0 -37.333 5.83301 -72.333 17.5 -105s29.334 -63.167 53.001 -91.5s45.5 -51.833 65.5 -70.5s46.667 -41.5 80 -68.5
s57 -46.833 71 -59.5c51.333 -45.333 94.666 -87.833 129.999 -127.5s68.666 -84.5 99.999 -134.5s54.833 -104 70.5 -162s23.5 -120.667 23.5 -188c0 -126 -45 -229.167 -135 -309.5s-199.333 -120.5 -328 -120.5c-83.333 0 -157.333 15.333 -222 46
s-116.834 72.334 -156.501 125.001s-70.167 111 -91.5 175s-33.666 132.667 -36.999 206zM193 1939l201 406h290l206 -406h-275l-75 202l-73 -202h-274z" />
    <glyph glyph-name="scircumflex" unicode="&#x15d;" horiz-adv-x="874" 
d="M38 315l257.997 91.9961c6.66699 -20 12 -35.5 16 -46.5s10.833 -27 20.5 -48s19 -37.167 28 -48.5s20.667 -21.833 35 -31.5s29.5 -14.5 45.5 -14.5c42 0 63 24.667 63 74c0 18 -4.16699 36.5 -12.5 55.5s-17 35.333 -26 49s-24.667 31.5 -47 53.5
s-39.5 38.333 -51.5 49l-63 54l-55 47c-71.333 62 -127.333 123 -168 183s-61 126.667 -61 200c0 56.667 11.833 107.834 35.5 153.501s55.5 82.5 95.5 110.5s84.833 49.5 134.5 64.5s101.834 22.5 156.501 22.5c48.667 0 95.334 -10.333 140.001 -31
s83.834 -48.167 117.501 -82.5s62.834 -73 87.501 -116s43.667 -88.167 57 -135.5l-242 -83l-20 49.5c-5.33301 13 -13.833 30 -25.5 51s-23 37.833 -34 50.5s-24.5 23.834 -40.5 33.501s-32.667 14.5 -50 14.5c-23.333 0 -41.5 -8.33301 -54.5 -25s-19.5 -35.667 -19.5 -57
c0 -29.333 16.167 -62.166 48.5 -98.499s76.833 -78.166 133.5 -125.499l62 -55c33.333 -30 62.166 -58.167 86.499 -84.5s48.666 -56.166 72.999 -89.499s43 -68.333 56 -105s19.5 -73.334 19.5 -110.001c0 -105.333 -37.167 -192.333 -111.5 -261
s-164.166 -103 -269.499 -103c-102 0 -190 31.667 -264 95s-125.333 146.333 -154 249zM96.9971 1436l201 406h290l206 -406h-275l-75 202l-73 -202h-274z" />
    <glyph glyph-name="Scedilla" unicode="&#x15e;" horiz-adv-x="1073" 
d="M45 515l369 70.998c0 -36.667 0.666992 -69 2 -97s4.83301 -58.5 10.5 -91.5s13.334 -60 23.001 -81s23.334 -38.667 41.001 -53s38.5 -21.5 62.5 -21.5c72 0 108 46 108 138c0 126 -71 251.333 -213 376l-113 96c-36 30 -64.667 55 -86 75s-46.5 47 -75.5 81
s-51.667 66.833 -68 98.5s-30.333 69.834 -42 114.501s-17.5 92 -17.5 142c0 146 46.333 261.5 139 346.5s215.667 127.5 369 127.5c127.333 0 235.666 -45.333 324.999 -136s134 -200 134 -328l-1 -13v-30l-376 -52c0 7.33301 0.5 18.833 1.5 34.5s1.5 28.5 1.5 38.5
c0 24 -1.66699 47 -5 69s-8.83301 44 -16.5 66s-19.5 39.5 -35.5 52.5s-35.333 19.5 -58 19.5c-40 0 -70 -15.667 -90 -47s-30 -68.333 -30 -111c0 -37.333 5.83301 -72.333 17.5 -105s29.334 -63.167 53.001 -91.5s45.5 -51.833 65.5 -70.5s46.667 -41.5 80 -68.5
s57 -46.833 71 -59.5c51.333 -45.333 94.666 -87.833 129.999 -127.5s68.666 -84.5 99.999 -134.5s54.833 -104 70.5 -162s23.5 -120.667 23.5 -188c0 -126 -45 -229.167 -135 -309.5s-199.333 -120.5 -328 -120.5c-83.333 0 -157.333 15.333 -222 46
s-116.834 72.334 -156.501 125.001s-70.167 111 -91.5 175s-33.666 132.667 -36.999 206zM400 -579.002l0.000976562 161.004c2 0 9.16699 -0.166992 21.5 -0.5s24.333 -0.5 36 -0.5s25.667 0.166992 42 0.5s31.166 1.5 44.499 3.5s26 4.33301 38 7
s21.5 6.83398 28.5 12.501s10.5 12.167 10.5 19.5c0 6.66699 -1.33301 13.167 -4 19.5s-6.83398 12.333 -12.501 18l-16.5 16c-5.33301 5 -12.666 10 -21.999 15l-23 12.5c-6 3.33301 -14.5 7.16602 -25.5 11.499s-18.667 7.5 -23 9.5s-11.5 4.66699 -21.5 8
s-15.667 5.33301 -17 6v242h171v-129c147.333 -69.333 221 -147 221 -233c0 -27.333 -6.16699 -51.833 -18.5 -73.5s-27.5 -39.334 -45.5 -53.001s-41.5 -25.334 -70.5 -35.001s-55.333 -16.834 -79 -21.501s-52.667 -8.33398 -87 -11.001s-60.5 -4.16699 -78.5 -4.5
s-41 -0.5 -69 -0.5z" />
    <glyph glyph-name="scedilla" unicode="&#x15f;" horiz-adv-x="874" 
d="M38 315l257.997 91.9961c6.66699 -20 12 -35.5 16 -46.5s10.833 -27 20.5 -48s19 -37.167 28 -48.5s20.667 -21.833 35 -31.5s29.5 -14.5 45.5 -14.5c42 0 63 24.667 63 74c0 18 -4.16699 36.5 -12.5 55.5s-17 35.333 -26 49s-24.667 31.5 -47 53.5
s-39.5 38.333 -51.5 49l-63 54l-55 47c-71.333 62 -127.333 123 -168 183s-61 126.667 -61 200c0 56.667 11.833 107.834 35.5 153.501s55.5 82.5 95.5 110.5s84.833 49.5 134.5 64.5s101.834 22.5 156.501 22.5c48.667 0 95.334 -10.333 140.001 -31
s83.834 -48.167 117.501 -82.5s62.834 -73 87.501 -116s43.667 -88.167 57 -135.5l-242 -83l-20 49.5c-5.33301 13 -13.833 30 -25.5 51s-23 37.833 -34 50.5s-24.5 23.834 -40.5 33.501s-32.667 14.5 -50 14.5c-23.333 0 -41.5 -8.33301 -54.5 -25s-19.5 -35.667 -19.5 -57
c0 -29.333 16.167 -62.166 48.5 -98.499s76.833 -78.166 133.5 -125.499l62 -55c33.333 -30 62.166 -58.167 86.499 -84.5s48.666 -56.166 72.999 -89.499s43 -68.333 56 -105s19.5 -73.334 19.5 -110.001c0 -105.333 -37.167 -192.333 -111.5 -261
s-164.166 -103 -269.499 -103c-102 0 -190 31.667 -264 95s-125.333 146.333 -154 249zM303.997 -571.004l0.000976562 161.004c2 0 9.16699 -0.166992 21.5 -0.5s24.333 -0.5 36 -0.5s25.667 0.166992 42 0.5s31.166 1.5 44.499 3.5s26 4.33301 38 7
s21.5 6.83398 28.5 12.501s10.5 12.167 10.5 19.5c0 6.66699 -1.33301 13.167 -4 19.5s-6.83398 12.333 -12.501 18l-16.5 16c-5.33301 5 -12.666 10 -21.999 15l-23 12.5c-6 3.33301 -14.5 7.16602 -25.5 11.499s-18.667 7.5 -23 9.5s-11.5 4.66699 -21.5 8
s-15.667 5.33301 -17 6v242h171v-129c147.333 -69.333 221 -147 221 -233c0 -27.333 -6.16699 -51.833 -18.5 -73.5s-27.5 -39.334 -45.5 -53.001s-41.5 -25.334 -70.5 -35.001s-55.333 -16.834 -79 -21.501s-52.667 -8.33398 -87 -11.001s-60.5 -4.16699 -78.5 -4.5
s-41 -0.5 -69 -0.5z" />
    <glyph glyph-name="Scaron" unicode="&#x160;" horiz-adv-x="1073" 
d="M45 515l369 70.998c0 -36.667 0.666992 -69 2 -97s4.83301 -58.5 10.5 -91.5s13.334 -60 23.001 -81s23.334 -38.667 41.001 -53s38.5 -21.5 62.5 -21.5c72 0 108 46 108 138c0 126 -71 251.333 -213 376l-113 96c-36 30 -64.667 55 -86 75s-46.5 47 -75.5 81
s-51.667 66.833 -68 98.5s-30.333 69.834 -42 114.501s-17.5 92 -17.5 142c0 146 46.333 261.5 139 346.5s215.667 127.5 369 127.5c127.333 0 235.666 -45.333 324.999 -136s134 -200 134 -328l-1 -13v-30l-376 -52c0 7.33301 0.5 18.833 1.5 34.5s1.5 28.5 1.5 38.5
c0 24 -1.66699 47 -5 69s-8.83301 44 -16.5 66s-19.5 39.5 -35.5 52.5s-35.333 19.5 -58 19.5c-40 0 -70 -15.667 -90 -47s-30 -68.333 -30 -111c0 -37.333 5.83301 -72.333 17.5 -105s29.334 -63.167 53.001 -91.5s45.5 -51.833 65.5 -70.5s46.667 -41.5 80 -68.5
s57 -46.833 71 -59.5c51.333 -45.333 94.666 -87.833 129.999 -127.5s68.666 -84.5 99.999 -134.5s54.833 -104 70.5 -162s23.5 -120.667 23.5 -188c0 -126 -45 -229.167 -135 -309.5s-199.333 -120.5 -328 -120.5c-83.333 0 -157.333 15.333 -222 46
s-116.834 72.334 -156.501 125.001s-70.167 111 -91.5 175s-33.666 132.667 -36.999 206zM395 1939l-201 406h274l73 -201l75 201h275l-206 -406h-290z" />
    <glyph glyph-name="scaron" unicode="&#x161;" horiz-adv-x="874" 
d="M38 315l257.997 91.9961c6.66699 -20 12 -35.5 16 -46.5s10.833 -27 20.5 -48s19 -37.167 28 -48.5s20.667 -21.833 35 -31.5s29.5 -14.5 45.5 -14.5c42 0 63 24.667 63 74c0 18 -4.16699 36.5 -12.5 55.5s-17 35.333 -26 49s-24.667 31.5 -47 53.5
s-39.5 38.333 -51.5 49l-63 54l-55 47c-71.333 62 -127.333 123 -168 183s-61 126.667 -61 200c0 56.667 11.833 107.834 35.5 153.501s55.5 82.5 95.5 110.5s84.833 49.5 134.5 64.5s101.834 22.5 156.501 22.5c48.667 0 95.334 -10.333 140.001 -31
s83.834 -48.167 117.501 -82.5s62.834 -73 87.501 -116s43.667 -88.167 57 -135.5l-242 -83l-20 49.5c-5.33301 13 -13.833 30 -25.5 51s-23 37.833 -34 50.5s-24.5 23.834 -40.5 33.501s-32.667 14.5 -50 14.5c-23.333 0 -41.5 -8.33301 -54.5 -25s-19.5 -35.667 -19.5 -57
c0 -29.333 16.167 -62.166 48.5 -98.499s76.833 -78.166 133.5 -125.499l62 -55c33.333 -30 62.166 -58.167 86.499 -84.5s48.666 -56.166 72.999 -89.499s43 -68.333 56 -105s19.5 -73.334 19.5 -110.001c0 -105.333 -37.167 -192.333 -111.5 -261
s-164.166 -103 -269.499 -103c-102 0 -190 31.667 -264 95s-125.333 146.333 -154 249zM279.997 1370l-201 406h274l73 -201l75 201h275l-206 -406h-290z" />
    <glyph glyph-name="Tcaron" unicode="&#x164;" horiz-adv-x="921" 
d="M278 0v1528h-264v272h887v-272h-259v-1528h-364zM313 1937l-201 406h274l73 -201l75 201h275l-206 -406h-290z" />
    <glyph glyph-name="tcaron" unicode="&#x165;" horiz-adv-x="668" 
d="M117 448l0.000976562 631.999h-96v225h96v429h337v-429h162v-225h-162v-713c0 -36 6.66699 -62.833 20 -80.5s37 -26.5 71 -26.5c38.667 0 71.334 2 98.001 6v-261c-44 -13.333 -115 -20 -213 -20c-39.333 0 -74.833 4.66699 -106.5 14s-58.334 21.833 -80.001 37.5
s-40.334 35.5 -56.001 59.5s-28 48.5 -37 73.5s-16 54.167 -21 87.5s-8.33301 64.333 -10 93s-2.5 61.334 -2.5 98.001zM765.001 1173l-39.999 166.003h15c17.333 0 29.166 0.166992 35.499 0.5s12.5 3.33301 18.5 9s9.5 13.167 10.5 22.5s1.5 24.333 1.5 45h-110v318h323
v-88c0.666992 -76.667 0.5 -133.334 -0.5 -170.001s-5.5 -80.834 -13.5 -132.501s-20.667 -88 -38 -109s-42.833 -38.333 -76.5 -52s-75.5 -16.834 -125.5 -9.50098z" />
    <glyph glyph-name="Utilde" unicode="&#x168;" 
d="M453 1968h-167.001c0 34 1.16699 64 3.5 90s7.5 52.667 15.5 80s18.5 50 31.5 68s30.833 32.667 53.5 44s49.667 17 81 17c48.667 0 107.167 -9.66699 175.5 -29s110.166 -29 125.499 -29c10.667 0 18.834 2.5 24.501 7.5s8.83398 10 9.50098 15s1 12.833 1 23.5h155
c0 -198.667 -52 -298 -156 -298c-33.333 0 -84.5 12.167 -153.5 36.5s-119.167 36.5 -150.5 36.5c-10 0 -18.333 -1.5 -25 -4.5s-11.5 -5.83301 -14.5 -8.5s-5.33301 -8 -7 -16s-2.5 -13 -2.5 -15v-18zM98.999 669l-0.0117188 1131h364v-1120
c0 -64 0.333008 -110.5 1 -139.5s2.33398 -64.333 5.00098 -106s7.33398 -70.834 14.001 -87.501s15.834 -34.667 27.501 -54s26.834 -32 45.501 -38s41.334 -9 68.001 -9s49.334 3 68.001 9s33.834 18.5 45.501 37.5s20.834 36.833 27.501 53.5s11.334 45.5 14.001 86.5
s4.33398 75.667 5.00098 104s1 74.166 1 137.499v6v1120h364v-1131c0 -57.333 -1.66699 -109.333 -5 -156s-9.66602 -95 -18.999 -145s-22 -94.167 -38 -132.5s-37.333 -75 -64 -110s-58.167 -63.833 -94.5 -86.5s-80.166 -40.667 -131.499 -54s-109 -20 -173 -20
s-121.667 6.66699 -173 20s-95 31.333 -131 54s-67.333 51.5 -94 86.5s-48 71.667 -64 110s-28.833 82.5 -38.5 132.5s-16.167 98.333 -19.5 145s-5 98.667 -5 156z" />
    <glyph glyph-name="utilde" unicode="&#x169;" horiz-adv-x="1006" 
d="M328 1467h-167.001c0 34 1.16699 64 3.5 90s7.5 52.667 15.5 80s18.5 50 31.5 68s30.833 32.667 53.5 44s49.667 17 81 17c48.667 0 107.167 -9.66699 175.5 -29s110.166 -29 125.499 -29c10.667 0 18.834 2.5 24.501 7.5s8.83398 10 9.50098 15s1 12.833 1 23.5h155
c0 -198.667 -52 -298 -156 -298c-33.333 0 -84.5 12.167 -153.5 36.5s-119.167 36.5 -150.5 36.5c-10 0 -18.333 -1.5 -25 -4.5s-11.5 -5.83301 -14.5 -8.5s-5.33301 -8 -7 -16s-2.5 -13 -2.5 -15v-18zM86.999 253l0.000976562 1052h337v-970c0 -73.333 15.333 -110 46 -110
c30 0 65 24.667 105 74v1006h337v-1305h-337v113c-34 -41.333 -73.667 -75.333 -119 -102s-91.333 -40 -138 -40c-68.667 0 -124.334 29.167 -167.001 87.5s-64 123.166 -64 194.499z" />
    <glyph glyph-name="Umacron" unicode="&#x16a;" 
d="M99 669l-0.0117188 1131h364v-1120c0 -64 0.333008 -110.5 1 -139.5s2.33398 -64.333 5.00098 -106s7.33398 -70.834 14.001 -87.501s15.834 -34.667 27.501 -54s26.834 -32 45.501 -38s41.334 -9 68.001 -9s49.334 3 68.001 9s33.834 18.5 45.501 37.5
s20.834 36.833 27.501 53.5s11.334 45.5 14.001 86.5s4.33398 75.667 5.00098 104s1 74.166 1 137.499v6v1120h364v-1131c0 -57.333 -1.66699 -109.333 -5 -156s-9.66602 -95 -18.999 -145s-22 -94.167 -38 -132.5s-37.333 -75 -64 -110s-58.167 -63.833 -94.5 -86.5
s-80.166 -40.667 -131.499 -54s-109 -20 -173 -20s-121.667 6.66699 -173 20s-95 31.333 -131 54s-67.333 51.5 -94 86.5s-48 71.667 -64 110s-28.833 82.5 -38.5 132.5s-16.167 98.333 -19.5 145s-5 98.667 -5 156zM369.988 1937v193h507v-193h-507z" />
    <glyph glyph-name="umacron" unicode="&#x16b;" horiz-adv-x="1006" 
d="M87 253l0.000976562 1052h337v-970c0 -73.333 15.333 -110 46 -110c30 0 65 24.667 105 74v1006h337v-1305h-337v113c-34 -41.333 -73.667 -75.333 -119 -102s-91.333 -40 -138 -40c-68.667 0 -124.334 29.167 -167.001 87.5s-64 123.166 -64 194.499zM247.001 1457v193
h507v-193h-507z" />
    <glyph glyph-name="Ubreve" unicode="&#x16c;" 
d="M99 669l-0.0117188 1131h364v-1120c0 -64 0.333008 -110.5 1 -139.5s2.33398 -64.333 5.00098 -106s7.33398 -70.834 14.001 -87.501s15.834 -34.667 27.501 -54s26.834 -32 45.501 -38s41.334 -9 68.001 -9s49.334 3 68.001 9s33.834 18.5 45.501 37.5
s20.834 36.833 27.501 53.5s11.334 45.5 14.001 86.5s4.33398 75.667 5.00098 104s1 74.166 1 137.499v6v1120h364v-1131c0 -57.333 -1.66699 -109.333 -5 -156s-9.66602 -95 -18.999 -145s-22 -94.167 -38 -132.5s-37.333 -75 -64 -110s-58.167 -63.833 -94.5 -86.5
s-80.166 -40.667 -131.499 -54s-109 -20 -173 -20s-121.667 6.66699 -173 20s-95 31.333 -131 54s-67.333 51.5 -94 86.5s-48 71.667 -64 110s-28.833 82.5 -38.5 132.5s-16.167 98.333 -19.5 145s-5 98.667 -5 156zM370.988 2185h171.998c0 -18.667 2.33301 -37 7 -55
s13.334 -34.5 26.001 -49.5s28.667 -22.5 48 -22.5s35.333 7.5 48 22.5s21.334 31.5 26.001 49.5s7 36.333 7 55h172c0 -73.333 -23.667 -133 -71 -179s-108 -69 -182 -69s-134.667 23 -182 69s-71 105.667 -71 179z" />
    <glyph glyph-name="ubreve" unicode="&#x16d;" horiz-adv-x="1006" 
d="M87 253l0.000976562 1052h337v-970c0 -73.333 15.333 -110 46 -110c30 0 65 24.667 105 74v1006h337v-1305h-337v113c-34 -41.333 -73.667 -75.333 -119 -102s-91.333 -40 -138 -40c-68.667 0 -124.334 29.167 -167.001 87.5s-64 123.166 -64 194.499zM247.001 1684
h171.998c0 -18.667 2.33301 -37 7 -55s13.334 -34.5 26.001 -49.5s28.667 -22.5 48 -22.5s35.333 7.5 48 22.5s21.334 31.5 26.001 49.5s7 36.333 7 55h172c0 -73.333 -23.667 -133 -71 -179s-108 -69 -182 -69s-134.667 23 -182 69s-71 105.667 -71 179z" />
    <glyph glyph-name="Uring" unicode="&#x16e;" 
d="M99 669l-0.0117188 1131h364v-1120c0 -64 0.333008 -110.5 1 -139.5s2.33398 -64.333 5.00098 -106s7.33398 -70.834 14.001 -87.501s15.834 -34.667 27.501 -54s26.834 -32 45.501 -38s41.334 -9 68.001 -9s49.334 3 68.001 9s33.834 18.5 45.501 37.5
s20.834 36.833 27.501 53.5s11.334 45.5 14.001 86.5s4.33398 75.667 5.00098 104s1 74.166 1 137.499v6v1120h364v-1131c0 -57.333 -1.66699 -109.333 -5 -156s-9.66602 -95 -18.999 -145s-22 -94.167 -38 -132.5s-37.333 -75 -64 -110s-58.167 -63.833 -94.5 -86.5
s-80.166 -40.667 -131.499 -54s-109 -20 -173 -20s-121.667 6.66699 -173 20s-95 31.333 -131 54s-67.333 51.5 -94 86.5s-48 71.667 -64 110s-28.833 82.5 -38.5 132.5s-16.167 98.333 -19.5 145s-5 98.667 -5 156zM370.988 2176c0 72.667 23.833 130.668 71.5 174.001
s108.167 65 181.5 65s133.833 -21.667 181.5 -65s71.5 -101.333 71.5 -174s-23.833 -130.667 -71.5 -174s-108.167 -65 -181.5 -65s-133.833 21.667 -181.5 65s-71.5 101.333 -71.5 173.999zM623.988 2058c26 0 45.502 12.334 58.502 37.001s19.5 51.334 19.5 80
c0 28.667 -6.5 55.667 -19.5 81s-32.5 38 -58.5 38c-26.667 0 -46.834 -12.333 -60.501 -37s-20.5 -51.334 -20.5 -80.001c0 -30 6.66699 -57.333 20 -82s33.666 -37 60.999 -37z" />
    <glyph glyph-name="uring" unicode="&#x16f;" horiz-adv-x="1006" 
d="M87 253l0.000976562 1052h337v-970c0 -73.333 15.333 -110 46 -110c30 0 65 24.667 105 74v1006h337v-1305h-337v113c-34 -41.333 -73.667 -75.333 -119 -102s-91.333 -40 -138 -40c-68.667 0 -124.334 29.167 -167.001 87.5s-64 123.166 -64 194.499zM247.001 1675
c0 72.667 23.833 130.667 71.5 174s108.167 65 181.5 65s133.833 -21.667 181.5 -65s71.5 -101.333 71.5 -174s-23.833 -130.667 -71.5 -174s-108.167 -65 -181.5 -65s-133.833 21.667 -181.5 65s-71.5 101.333 -71.5 174zM500.001 1557c26 0 45.502 12.333 58.502 37
s19.5 51.334 19.5 80.001s-6.5 55.667 -19.5 81s-32.5 38 -58.5 38c-26.667 0 -46.834 -12.333 -60.501 -37s-20.5 -51.334 -20.5 -80.001c0 -30 6.66699 -57.333 20 -82s33.666 -37 60.999 -37z" />
    <glyph glyph-name="Uhungarumlaut" unicode="&#x170;" 
d="M99 669l-0.0117188 1131h364v-1120c0 -64 0.333008 -110.5 1 -139.5s2.33398 -64.333 5.00098 -106s7.33398 -70.834 14.001 -87.501s15.834 -34.667 27.501 -54s26.834 -32 45.501 -38s41.334 -9 68.001 -9s49.334 3 68.001 9s33.834 18.5 45.501 37.5
s20.834 36.833 27.501 53.5s11.334 45.5 14.001 86.5s4.33398 75.667 5.00098 104s1 74.166 1 137.499v6v1120h364v-1131c0 -57.333 -1.66699 -109.333 -5 -156s-9.66602 -95 -18.999 -145s-22 -94.167 -38 -132.5s-37.333 -75 -64 -110s-58.167 -63.833 -94.5 -86.5
s-80.166 -40.667 -131.499 -54s-109 -20 -173 -20s-121.667 6.66699 -173 20s-95 31.333 -131 54s-67.333 51.5 -94 86.5s-48 71.667 -64 110s-28.833 82.5 -38.5 132.5s-16.167 98.333 -19.5 145s-5 98.667 -5 156zM678.988 1937l137 442h285l-215 -442h-207zM362.988 1937
l137 442h283l-215 -442h-205z" />
    <glyph glyph-name="uhungarumlaut" unicode="&#x171;" horiz-adv-x="1006" 
d="M87 253l0.000976562 1052h337v-970c0 -73.333 15.333 -110 46 -110c30 0 65 24.667 105 74v1006h337v-1305h-337v113c-34 -41.333 -73.667 -75.333 -119 -102s-91.333 -40 -138 -40c-68.667 0 -124.334 29.167 -167.001 87.5s-64 123.166 -64 194.499zM554.001 1436
l137 442h285l-215 -442h-207zM238.001 1436l137 442h283l-215 -442h-205z" />
    <glyph glyph-name="Uogonek" unicode="&#x172;" 
d="M99 669l-0.0117188 1131h364v-1120c0 -64 0.333008 -110.5 1 -139.5s2.33398 -64.333 5.00098 -106s7.33398 -70.834 14.001 -87.501s15.834 -34.667 27.501 -54s26.834 -32 45.501 -38s41.334 -9 68.001 -9s49.334 3 68.001 9s33.834 18.5 45.501 37.5
s20.834 36.833 27.501 53.5s11.334 45.5 14.001 86.5s4.33398 75.667 5.00098 104s1 74.166 1 137.499v6v1120h364v-1131c0 -57.333 -1.66699 -109.333 -5 -156s-9.66602 -95 -18.999 -145s-22 -94.167 -38 -132.5s-37.333 -75 -64 -110s-58.167 -63.833 -94.5 -86.5
s-80.166 -40.667 -131.499 -54s-109 -20 -173 -20s-121.667 6.66699 -173 20s-95 31.333 -131 54s-67.333 51.5 -94 86.5s-48 71.667 -64 110s-28.833 82.5 -38.5 132.5s-16.167 98.333 -19.5 145s-5 98.667 -5 156zM818.988 -390.998l-20.999 -160.002
c-27.333 -2 -56.166 -2 -86.499 0s-60.166 4.5 -89.499 7.5s-57.5 9.83301 -84.5 20.5s-50.833 23.667 -71.5 39s-37 36.5 -49 63.5s-18 57.833 -18 92.5c0 52 14.667 106.833 44 164.5s65 106.5 107 146.5h148c-4.66699 -13.333 -12.334 -33.833 -23.001 -61.5l-25 -66
c-6 -16.333 -11.5 -36.666 -16.5 -60.999s-7.5 -47.166 -7.5 -68.499c0 -18.667 2.66699 -35.167 8 -49.5s13.833 -25.5 25.5 -33.5s22.667 -14.5 33 -19.5s24.666 -8.5 42.999 -10.5s32.166 -3.16699 41.499 -3.5s23.333 -0.5 42 -0.5z" />
    <glyph glyph-name="uogonek" unicode="&#x173;" horiz-adv-x="1006" 
d="M87 253l0.000976562 1052h337v-970c0 -73.333 15.333 -110 46 -110c30 0 65 24.667 105 74v1006h337v-1305h-337v113c-34 -41.333 -73.667 -75.333 -119 -102s-91.333 -40 -138 -40c-68.667 0 -124.334 29.167 -167.001 87.5s-64 123.166 -64 194.499zM903.001 -365.999
l-20.999 -160.002c-27.333 -2 -56.166 -2 -86.499 0s-60.166 4.5 -89.499 7.5s-57.5 9.83301 -84.5 20.5s-50.833 23.667 -71.5 39s-37 36.5 -49 63.5s-18 57.833 -18 92.5c0 52 14.667 106.833 44 164.5s65 106.5 107 146.5h148
c-4.66699 -13.333 -12.334 -33.833 -23.001 -61.5l-25 -66c-6 -16.333 -11.5 -36.666 -16.5 -60.999s-7.5 -47.166 -7.5 -68.499c0 -18.667 2.66699 -35.167 8 -49.5s13.833 -25.5 25.5 -33.5s22.667 -14.5 33 -19.5s24.666 -8.5 42.999 -10.5s32.166 -3.16699 41.499 -3.5
s23.333 -0.5 42 -0.5z" />
    <glyph glyph-name="Wcircumflex" unicode="&#x174;" horiz-adv-x="1486" 
d="M270 0l-249 1800h310l112 -1192l154 1192h267l151 -1185l117 1185h311l-252 -1800h-311l-151 1178l-148 -1178h-311zM395 1937l201 406h290l206 -406h-275l-75 202l-73 -202h-274z" />
    <glyph glyph-name="wcircumflex" unicode="&#x175;" horiz-adv-x="1273" 
d="M218 0l-191 1305h281l104 -805l108 805h254l98 -821l114 821h260l-193 -1305h-290l-123 771l-132 -771h-290zM288 1436l201 406h290l206 -406h-275l-75 202l-73 -202h-274z" />
    <glyph glyph-name="Ycircumflex" unicode="&#x176;" horiz-adv-x="1035" 
d="M337 0v595l-338 1205h343l168 -791l93 395.5l92 395.5h333l-339 -1205v-595h-352zM169 1937l201 406h290l206 -406h-275l-75 202l-73 -202h-274z" />
    <glyph glyph-name="ycircumflex" unicode="&#x177;" horiz-adv-x="872" 
d="M270 117c0 87.333 -17.668 214.502 -53.001 381.502s-76.333 338.5 -123 514.5s-72 273.333 -76 292h307l121 -728l106 728h309l-285 -1340c-10 -45.333 -25.333 -84.833 -46 -118.5s-44.167 -60.334 -70.5 -80.001s-58 -35.5 -95 -47.5s-73.667 -20 -110 -24
s-77.833 -6 -124.5 -6h-43v233c66.667 1.33301 113.834 17.166 141.501 47.499s41.5 79.5 41.5 147.5zM90.999 1436l201 406h290l206 -406h-275l-75 202l-73 -202h-274z" />
    <glyph glyph-name="Ydieresis" unicode="&#x178;" horiz-adv-x="1035" 
d="M337 0v595l-338 1205h343l168 -791l93 395.5l92 395.5h333l-339 -1205v-595h-352zM592 1937v308h304v-308h-304zM139 1937v308h303v-308h-303z" />
    <glyph glyph-name="Zacute" unicode="&#x179;" horiz-adv-x="998" 
d="M80 0v228l475 1321h-420v250h776v-229l-477 -1320h477v-250h-831zM393 1937l136 442h345l-277 -442h-204z" />
    <glyph glyph-name="zacute" unicode="&#x17a;" horiz-adv-x="813" 
d="M57 0v228l359 834h-303v243h651v-223l-362 -838h362v-244h-707zM282 1393l136 442h345l-277 -442h-204z" />
    <glyph glyph-name="Zdotaccent" unicode="&#x17b;" horiz-adv-x="998" 
d="M80 0v228l475 1321h-420v250h776v-229l-477 -1320h477v-250h-831zM384 1937v318h323v-318h-323z" />
    <glyph glyph-name="zdotaccent" unicode="&#x17c;" horiz-adv-x="813" 
d="M57 0v228l359 834h-303v243h651v-223l-362 -838h362v-244h-707zM245 1499v318h323v-318h-323z" />
    <glyph glyph-name="Zcaron" unicode="&#x17d;" horiz-adv-x="998" 
d="M80 0v228l475 1321h-420v250h776v-229l-477 -1320h477v-250h-831zM408 1937l-201 406h274l73 -201l75 201h275l-206 -406h-290z" />
    <glyph glyph-name="zcaron" unicode="&#x17e;" horiz-adv-x="813" 
d="M57 0v228l359 834h-303v243h651v-223l-362 -838h362v-244h-707zM309 1385l-201 406h274l73 -201l75 201h275l-206 -406h-290z" />
    <glyph glyph-name="florin" unicode="&#x192;" horiz-adv-x="734" 
d="M15 -244l0.000976562 190c41.333 -6.66699 70 -10 86 -10c18.667 0 34.667 3 48 9s23.666 13.5 30.999 22.5s13.166 21 17.499 36s7 29.333 8 43s1.5 30.167 1.5 49.5v984h-142v225h142v39c0 36.667 0.166992 64.334 0.5 83.001s2.33301 44 6 76s9 56.667 16 74
s17.5 37.166 31.5 59.499s31.167 39 51.5 50s46 20.667 77 29s66.833 12.5 107.5 12.5c41.333 0 94 -4 158 -12v-190c-8.66699 0.666992 -23.334 2.5 -44.001 5.5s-34.667 4.5 -42 4.5c-18.667 0 -34.667 -3 -48 -9s-23.666 -13.5 -30.999 -22.5s-13.166 -21 -17.499 -36
s-7 -29.333 -8 -43s-1.5 -30.167 -1.5 -49.5v-71h178v-225h-178v-952c0 -36.667 -0.166992 -64.334 -0.5 -83.001s-2.33301 -44 -6 -76s-9 -56.667 -16 -74s-17.5 -37.166 -31.5 -59.499s-31.167 -39 -51.5 -50s-46 -20.667 -77 -29s-66.833 -12.5 -107.5 -12.5
c-41.333 0 -94 4 -158 12z" />
    <glyph glyph-name="uni01C4" unicode="&#x1c4;" horiz-adv-x="2162" 
d="M1244 0v228l475 1321h-420v250h776v-229l-477 -1320h477v-250h-831zM1572 1937l-201 406h274l73 -201l75 201h275l-206 -406h-290zM107 0v1800h376c120 0 218.833 -10.833 296.5 -32.5s138.667 -57.334 183 -107.001s75 -109.167 92 -178.5s25.5 -157.666 25.5 -264.999
v-590c0 -64 -2 -119.833 -6 -167.5s-11.5 -94.334 -22.5 -140.001s-26 -84.334 -45 -116.001s-43.5 -61.167 -73.5 -88.5s-66.167 -49 -108.5 -65s-92 -28.333 -149 -37s-122.5 -13 -196.5 -13h-372zM485 255.002c34.667 0 61.999 0.50293 81.999 1.50293s40 3.5 60 7.5
s34.667 9.5 44 16.5s18 17.167 26 30.5s13.167 29.166 15.5 47.499s3.5 41.166 3.5 68.499v969c0 59.333 -17.667 98.666 -53 117.999s-94.666 29.333 -177.999 30v-1289z" />
    <glyph glyph-name="uni01C5" unicode="&#x1c5;" horiz-adv-x="1977" 
d="M1221 0v228l359 834h-303v243h651v-223l-362 -838h362v-244h-707zM1473 1385l-201 406h274l73 -201l75 201h275l-206 -406h-290zM107 0v1800h376c120 0 218.833 -10.833 296.5 -32.5s138.667 -57.334 183 -107.001s75 -109.167 92 -178.5s25.5 -157.666 25.5 -264.999
v-590c0 -64 -2 -119.833 -6 -167.5s-11.5 -94.334 -22.5 -140.001s-26 -84.334 -45 -116.001s-43.5 -61.167 -73.5 -88.5s-66.167 -49 -108.5 -65s-92 -28.333 -149 -37s-122.5 -13 -196.5 -13h-372zM485 255.002c34.667 0 61.999 0.50293 81.999 1.50293s40 3.5 60 7.5
s34.667 9.5 44 16.5s18 17.167 26 30.5s13.167 29.166 15.5 47.499s3.5 41.166 3.5 68.499v969c0 59.333 -17.667 98.666 -53 117.999s-94.666 29.333 -177.999 30v-1289z" />
    <glyph glyph-name="uni01C6" unicode="&#x1c6;" horiz-adv-x="1812" 
d="M1056 0v228l359 834h-303v243h651v-223l-362 -838h362v-244h-707zM1308 1385l-201 406h274l73 -201l75 201h275l-206 -406h-290zM79 250v770.999c0 82.667 26 155.667 78 219s116.333 95 193 95c42 0 81.833 -10.833 119.5 -32.5s70.167 -50.167 97.5 -85.5v583h337
v-1800h-337v98c-26.667 -39.333 -60 -70.333 -100 -93s-82.333 -34 -127 -34c-74 0 -136 27.833 -186 83.5s-75 120.834 -75 195.501zM567 296.999l-0.000976562 708.001c-38 50 -69.667 75 -95 75c-37.333 0 -56 -28.667 -56 -86v-675c0 -18 0.833008 -32.833 2.5 -44.5
s7 -22.834 16 -33.501s21.5 -16 37.5 -16c28.667 0 60.334 24 95.001 72z" />
    <glyph glyph-name="uni01C7" unicode="&#x1c7;" horiz-adv-x="1529" 
d="M838 -34l-0.000976562 255.999c88 -1.33301 146.667 11.834 176 39.501s44 85.5 44 173.5v1365h364v-1368c0 -66 -3.16699 -122.167 -9.5 -168.5s-18.166 -89.333 -35.499 -129s-41 -71.167 -71 -94.5s-68.833 -41.5 -116.5 -54.5s-105.167 -19.5 -172.5 -19.5h-179z
M106.999 -0.000976562v1800h364v-1550h358v-250h-722z" />
    <glyph glyph-name="uni01C8" unicode="&#x1c8;" horiz-adv-x="1410" 
d="M981 1419v315h335v-315h-335zM817 -284l0.000976562 244c37.333 -10.667 66.666 -16 87.999 -16c50.667 0 76 37 76 111v1250h335v-1279c0 -104.667 -27.5 -187 -82.5 -247s-134.167 -90 -237.5 -90c-50 0 -109.667 9 -179 27zM107.001 0v1800h364v-1550h358v-250h-722z
" />
    <glyph glyph-name="uni01C9" unicode="&#x1c9;" horiz-adv-x="1101" 
d="M672 1419v315h335v-315h-335zM508 -284l0.000976562 244c37.333 -10.667 66.666 -16 87.999 -16c50.667 0 76 37 76 111v1250h335v-1279c0 -104.667 -27.5 -187 -82.5 -247s-134.167 -90 -237.5 -90c-50 0 -109.667 9 -179 27zM96.001 0v1800h337v-1800h-337z" />
    <glyph glyph-name="uni01CA" unicode="&#x1ca;" horiz-adv-x="1864" 
d="M1173 -34l-0.000976562 255.999c88 -1.33301 146.667 11.834 176 39.501s44 85.5 44 173.5v1365h364v-1368c0 -66 -3.16699 -122.167 -9.5 -168.5s-18.166 -89.333 -35.499 -129s-41 -71.167 -71 -94.5s-68.833 -41.5 -116.5 -54.5s-105.167 -19.5 -172.5 -19.5h-179z
M106.999 -0.000976562v1801h262l395 -942v942h302v-1801h-252l-394 999v-999h-313z" />
    <glyph glyph-name="uni01CB" unicode="&#x1cb;" horiz-adv-x="1745" 
d="M1316 1419v315h335v-315h-335zM1152 -284l0.000976562 244c37.333 -10.667 66.666 -16 87.999 -16c50.667 0 76 37 76 111v1250h335v-1279c0 -104.667 -27.5 -187 -82.5 -247s-134.167 -90 -237.5 -90c-50 0 -109.667 9 -179 27zM107.001 0v1801h262l395 -942v942h302
v-1801h-252l-394 999v-999h-313z" />
    <glyph glyph-name="uni01CC" unicode="&#x1cc;" horiz-adv-x="1577" 
d="M1148 1419v315h335v-315h-335zM984 -284l0.000976562 244c37.333 -10.667 66.666 -16 87.999 -16c50.667 0 76 37 76 111v1250h335v-1279c0 -104.667 -27.5 -187 -82.5 -247s-134.167 -90 -237.5 -90c-50 0 -109.667 9 -179 27zM94.001 0l-0.000976562 1305h337v-92
c32 36.667 70.5 66 115.5 88s91.833 33 140.5 33c46 0 87.167 -14.5 123.5 -43.5s63.333 -64.667 81 -107s26.5 -86.166 26.5 -131.499v-1052h-337v993c0 58 -18.667 87 -56 87c-4 0 -8.16699 -0.5 -12.5 -1.5s-8.66602 -2.66699 -12.999 -5l-11.5 -6
c-3.33301 -1.66699 -7.33301 -4.5 -12 -8.5l-10.5 -9c-2.33301 -2 -5.83301 -5.5 -10.5 -10.5s-7.66699 -8.33301 -9 -10s-4 -4.83398 -8 -9.50098l-7 -8v-1012h-337z" />
    <glyph glyph-name="uni01F1" unicode="&#x1f1;" horiz-adv-x="2162" 
d="M1244 0v228l475 1321h-420v250h776v-229l-477 -1320h477v-250h-831zM107 0v1800h376c120 0 218.833 -10.833 296.5 -32.5s138.667 -57.334 183 -107.001s75 -109.167 92 -178.5s25.5 -157.666 25.5 -264.999v-590c0 -64 -2 -119.833 -6 -167.5
s-11.5 -94.334 -22.5 -140.001s-26 -84.334 -45 -116.001s-43.5 -61.167 -73.5 -88.5s-66.167 -49 -108.5 -65s-92 -28.333 -149 -37s-122.5 -13 -196.5 -13h-372zM485 255.002c34.667 0 61.999 0.50293 81.999 1.50293s40 3.5 60 7.5s34.667 9.5 44 16.5s18 17.167 26 30.5
s13.167 29.166 15.5 47.499s3.5 41.166 3.5 68.499v969c0 59.333 -17.667 98.666 -53 117.999s-94.666 29.333 -177.999 30v-1289z" />
    <glyph glyph-name="uni01F2" unicode="&#x1f2;" horiz-adv-x="1977" 
d="M1221 0v228l359 834h-303v243h651v-223l-362 -838h362v-244h-707zM107 0v1800h376c120 0 218.833 -10.833 296.5 -32.5s138.667 -57.334 183 -107.001s75 -109.167 92 -178.5s25.5 -157.666 25.5 -264.999v-590c0 -64 -2 -119.833 -6 -167.5
s-11.5 -94.334 -22.5 -140.001s-26 -84.334 -45 -116.001s-43.5 -61.167 -73.5 -88.5s-66.167 -49 -108.5 -65s-92 -28.333 -149 -37s-122.5 -13 -196.5 -13h-372zM485 255.002c34.667 0 61.999 0.50293 81.999 1.50293s40 3.5 60 7.5s34.667 9.5 44 16.5s18 17.167 26 30.5
s13.167 29.166 15.5 47.499s3.5 41.166 3.5 68.499v969c0 59.333 -17.667 98.666 -53 117.999s-94.666 29.333 -177.999 30v-1289z" />
    <glyph glyph-name="uni01F3" unicode="&#x1f3;" horiz-adv-x="1812" 
d="M1056 0v228l359 834h-303v243h651v-223l-362 -838h362v-244h-707zM79 250v770.999c0 82.667 26 155.667 78 219s116.333 95 193 95c42 0 81.833 -10.833 119.5 -32.5s70.167 -50.167 97.5 -85.5v583h337v-1800h-337v98c-26.667 -39.333 -60 -70.333 -100 -93
s-82.333 -34 -127 -34c-74 0 -136 27.833 -186 83.5s-75 120.834 -75 195.501zM567 296.999l-0.000976562 708.001c-38 50 -69.667 75 -95 75c-37.333 0 -56 -28.667 -56 -86v-675c0 -18 0.833008 -32.833 2.5 -44.5s7 -22.834 16 -33.501s21.5 -16 37.5 -16
c28.667 0 60.334 24 95.001 72z" />
    <glyph glyph-name="uni01F4" unicode="&#x1f4;" horiz-adv-x="1238" 
d="M84 563l0.00195312 634c0 425.333 177 638 531 638c74.667 0 141.167 -9.83301 199.5 -29.5s107.166 -46.834 146.499 -81.501s71.666 -77.334 96.999 -128.001s43.666 -105.667 54.999 -165s17 -124.666 17 -195.999v-106h-348v126c0 31.333 -0.833008 58.833 -2.5 82.5
s-5.83398 50 -12.501 79s-15.667 52.833 -27 71.5s-27.666 34.334 -48.999 47.001s-46.666 19 -75.999 19c-111.333 0 -167 -88.667 -167 -266v-777c0 -176.667 55.667 -265 167 -265c110.667 0 166 91.667 166 275v144h-206v261h570v-926h-250l-46 126
c-30.667 -48 -74.334 -86.833 -131.001 -116.5s-115 -44.5 -175 -44.5c-64.667 0 -123.5 11.833 -176.5 35.5s-96.667 55 -131 94s-63.166 84.833 -86.499 137.5s-40 106.5 -50 161.5s-15 111.5 -15 169.5zM513.002 1937l136 442h345l-277 -442h-204z" />
    <glyph glyph-name="uni01F5" unicode="&#x1f5;" horiz-adv-x="965" 
d="M358 79h-24c-30 -47.333 -45 -89 -45 -125c0 -39.333 74 -59 222 -59h6c76 -0.666992 114 22 114 68c0 16 -4.33301 30.5 -13 43.5s-21.5 23.5 -38.5 31.5s-33.833 14.667 -50.5 20s-37 9.33301 -61 12s-43.167 4.66699 -57.5 6s-31.833 2.33301 -52.5 3zM462 632
c54.667 0 82.0039 77.335 82.0039 232.002c0 158.667 -25.667 238 -77 238c-12.667 0 -23.834 -3.33301 -33.501 -10s-17.334 -16.834 -23.001 -30.501s-10.334 -27.667 -14.001 -42s-6.33398 -32.333 -8.00098 -54s-2.66699 -40.334 -3 -56.001s-0.5 -35.167 -0.5 -58.5
c0 -146 25.667 -219 77 -219zM328.004 339.002c0 -16 11.498 -29.335 34.498 -40.002s52.833 -19.5 89.5 -26.5s77.167 -14.167 121.5 -21.5s88.833 -16.833 133.5 -28.5s85.334 -25.834 122.001 -42.501s66.5 -40 89.5 -70s34.5 -65 34.5 -105
c0 -55.333 -8.16699 -103.833 -24.5 -145.5s-38 -75 -65 -100s-60.5 -45.167 -100.5 -60.5s-80.667 -25.833 -122 -31.5s-87.333 -8.5 -138 -8.5c-320.667 0 -481 78.333 -481 235c0 46 12.667 91.833 38 137.5s58.333 83.167 99 112.5
c-27.333 14 -53.666 30.5 -78.999 49.5s-38 37.167 -38 54.5c0 38 44.333 113.333 133 226c-68 124 -102 248.667 -102 374c0 64 7.5 124.167 22.5 180.5s37.833 107.833 68.5 154.5s72.167 83.667 124.5 111s112.833 41 181.5 41c102.667 0 180 -27.667 232 -83
c48.667 55.333 130.334 83 245.001 83h42l-28 -241c-66 0 -113.667 -14.667 -143 -44c28 -50 42 -125.667 42 -227c0 -59.333 -8.83301 -115.666 -26.5 -168.999s-43 -100.666 -76 -141.999s-75.333 -74 -127 -98s-108.834 -36 -171.501 -36c-12 0 -27 1.33301 -45 4
s-33 5.33398 -45 8.00098l-18 3c-15.333 -30 -23 -48 -23 -54zM403.002 1437l136 442h345l-277 -442h-204z" />
    <glyph glyph-name="uni0200" unicode="&#x200;" horiz-adv-x="1135" 
d="M465 609h186l-91 668zM9 0l389 1800h322l388 -1800h-359l-74 385h-235l-70 -385h-361zM624 1937l-215 442h283l137 -442h-205zM306 1937l-215 442h285l137 -442h-207z" />
    <glyph glyph-name="uni0201" unicode="&#x201;" horiz-adv-x="976" 
d="M552 295v321c-110.667 -89.333 -166 -187.333 -166 -294c0 -26.667 5.16699 -49.5 15.5 -68.5s27.833 -28.5 52.5 -28.5c14 0 27.833 4.5 41.5 13.5s23.5 16.833 29.5 23.5s15 17.667 27 33zM620 0l-32.9971 134.996c-19.333 -60.667 -51 -103.167 -95 -127.5
s-98.667 -36.5 -164 -36.5c-48 0 -90 9.33301 -126 28s-64.167 43.834 -84.5 75.501s-35.333 65.667 -45 102s-14.5 74.5 -14.5 114.5c0 45.333 4.66699 87.333 14 126s21.166 72.834 35.499 102.501s34.333 58.167 60 85.5s50.667 50.5 75 69.5s55.5 38.667 93.5 59
s72 37.333 102 51s67.667 29.834 113 48.501v110c0 46 -5.66699 80.333 -17 103s-30.666 34 -57.999 34c-18.667 0 -33.834 -3.83301 -45.501 -11.5s-19.834 -19.167 -24.501 -34.5s-7.66699 -29.166 -9 -41.499s-2 -28.833 -2 -49.5v-74h-327
c0 150 37.667 265.167 113 345.5s184.666 120.5 327.999 120.5c100 0 187.667 -36.333 263 -109s113 -159 113 -259v-620c0 -107.333 14.333 -223 43 -347h-308zM550.003 1437l-215 442h283l137 -442h-205zM232.003 1437l-215 442h285l137 -442h-207z" />
    <glyph glyph-name="uni0202" unicode="&#x202;" horiz-adv-x="1135" 
d="M465 609h186l-91 668zM9 0l389 1800h322l388 -1800h-359l-74 385h-235l-70 -385h-361zM487 1937h-171.998c0 73.333 23.667 133 71 179s108 69 182 69s134.667 -23 182 -69s71 -105.667 71 -179h-172c0 18.667 -2.33301 37 -7 55s-13.334 34.5 -26.001 49.5
s-28.667 22.5 -48 22.5s-35.333 -7.5 -48 -22.5s-21.334 -31.5 -26.001 -49.5s-7 -36.333 -7 -55z" />
    <glyph glyph-name="uni0203" unicode="&#x203;" horiz-adv-x="976" 
d="M552 295v321c-110.667 -89.333 -166 -187.333 -166 -294c0 -26.667 5.16699 -49.5 15.5 -68.5s27.833 -28.5 52.5 -28.5c14 0 27.833 4.5 41.5 13.5s23.5 16.833 29.5 23.5s15 17.667 27 33zM620 0l-32.9971 134.996c-19.333 -60.667 -51 -103.167 -95 -127.5
s-98.667 -36.5 -164 -36.5c-48 0 -90 9.33301 -126 28s-64.167 43.834 -84.5 75.501s-35.333 65.667 -45 102s-14.5 74.5 -14.5 114.5c0 45.333 4.66699 87.333 14 126s21.166 72.834 35.499 102.501s34.333 58.167 60 85.5s50.667 50.5 75 69.5s55.5 38.667 93.5 59
s72 37.333 102 51s67.667 29.834 113 48.501v110c0 46 -5.66699 80.333 -17 103s-30.666 34 -57.999 34c-18.667 0 -33.834 -3.83301 -45.501 -11.5s-19.834 -19.167 -24.501 -34.5s-7.66699 -29.166 -9 -41.499s-2 -28.833 -2 -49.5v-74h-327
c0 150 37.667 265.167 113 345.5s184.666 120.5 327.999 120.5c100 0 187.667 -36.333 263 -109s113 -159 113 -259v-620c0 -107.333 14.333 -223 43 -347h-308zM412.003 1437h-171.998c0 73.333 23.667 133 71 179s108 69 182 69s134.667 -23 182 -69s71 -105.667 71 -179
h-172c0 18.667 -2.33301 37 -7 55s-13.334 34.5 -26.001 49.5s-28.667 22.5 -48 22.5s-35.333 -7.5 -48 -22.5s-21.334 -31.5 -26.001 -49.5s-7 -36.333 -7 -55z" />
    <glyph glyph-name="uni0204" unicode="&#x204;" horiz-adv-x="889" 
d="M107 0v1800h751v-250h-387v-490h274v-256h-274v-554h387v-250h-751zM539 1937l-215 442h283l137 -442h-205zM221 1937l-215 442h285l137 -442h-207z" />
    <glyph glyph-name="uni0205" unicode="&#x205;" horiz-adv-x="940" 
d="M415 801h131v180c0 66 -22.333 99 -67 99c-42.667 0 -64 -33 -64 -99v-180zM78 339v554.998c0 138.667 33 246.834 99 324.501s166.667 116.5 302 116.5c136 0 236.833 -38.667 302.5 -116s98.5 -185.666 98.5 -324.999v-270h-465v-289c0 -73.333 21.333 -110 64 -110
c46.667 0 70 39.333 70 118v143h331v-147c0 -108.667 -39.333 -197.167 -118 -265.5s-173 -102.5 -283 -102.5s-204.333 34.333 -283 103s-118 157 -118 265zM536 1437l-215 442h283l137 -442h-205zM218 1437l-215 442h285l137 -442h-207z" />
    <glyph glyph-name="uni0206" unicode="&#x206;" horiz-adv-x="889" 
d="M107 0v1800h751v-250h-387v-490h274v-256h-274v-554h387v-250h-751zM401 1937h-171.998c0 73.333 23.667 133 71 179s108 69 182 69s134.667 -23 182 -69s71 -105.667 71 -179h-172c0 18.667 -2.33301 37 -7 55s-13.334 34.5 -26.001 49.5s-28.667 22.5 -48 22.5
s-35.333 -7.5 -48 -22.5s-21.334 -31.5 -26.001 -49.5s-7 -36.333 -7 -55z" />
    <glyph glyph-name="uni0207" unicode="&#x207;" horiz-adv-x="940" 
d="M415 801h131v180c0 66 -22.333 99 -67 99c-42.667 0 -64 -33 -64 -99v-180zM78 339v554.998c0 138.667 33 246.834 99 324.501s166.667 116.5 302 116.5c136 0 236.833 -38.667 302.5 -116s98.5 -185.666 98.5 -324.999v-270h-465v-289c0 -73.333 21.333 -110 64 -110
c46.667 0 70 39.333 70 118v143h331v-147c0 -108.667 -39.333 -197.167 -118 -265.5s-173 -102.5 -283 -102.5s-204.333 34.333 -283 103s-118 157 -118 265zM398 1437h-171.998c0 73.333 23.667 133 71 179s108 69 182 69s134.667 -23 182 -69s71 -105.667 71 -179h-172
c0 18.667 -2.33301 37 -7 55s-13.334 34.5 -26.001 49.5s-28.667 22.5 -48 22.5s-35.333 -7.5 -48 -22.5s-21.334 -31.5 -26.001 -49.5s-7 -36.333 -7 -55z" />
    <glyph glyph-name="uni0208" unicode="&#x208;" horiz-adv-x="578" 
d="M107 0v1800h364v-1800h-364zM346 1937l-215 442h283l137 -442h-205zM28 1937l-215 442h285l137 -442h-207z" />
    <glyph glyph-name="uni0209" unicode="&#x209;" horiz-adv-x="532" 
d="M124 0v1305h337v-1305h-337zM349 1436l-215 442h283l137 -442h-205zM31 1436l-215 442h285l137 -442h-207z" />
    <glyph glyph-name="uni020A" unicode="&#x20a;" horiz-adv-x="578" 
d="M107 0v1800h364v-1800h-364zM208 1937h-171.998c0 73.333 23.667 133 71 179s108 69 182 69s134.667 -23 182 -69s71 -105.667 71 -179h-172c0 18.667 -2.33301 37 -7 55s-13.334 34.5 -26.001 49.5s-28.667 22.5 -48 22.5s-35.333 -7.5 -48 -22.5
s-21.334 -31.5 -26.001 -49.5s-7 -36.333 -7 -55z" />
    <glyph glyph-name="uni020B" unicode="&#x20b;" horiz-adv-x="529" 
d="M96 1419v315h337v-315h-337zM96 0v1305h337v-1305h-337z" />
    <glyph glyph-name="uni020C" unicode="&#x20c;" horiz-adv-x="1221" 
d="M84 592l0.00292969 604.999c0 425.333 175.333 638 526 638c351.333 0 527 -212.667 527 -638v-596c0 -72 -5.33301 -138.5 -16 -199.5s-28.834 -118.833 -54.501 -173.5s-58.334 -101.167 -98.001 -139.5s-89.834 -68.5 -150.501 -90.5s-130 -33 -208 -33
c-77.333 0 -146.333 10.833 -207 32.5s-110.667 51 -150 88s-71.833 82.333 -97.5 136s-44 110.834 -55 171.501s-16.5 127 -16.5 199zM773.003 509.999l0.00195312 778c0 177.333 -54.333 266 -163 266c-32.667 0 -60.334 -8.16699 -83.001 -24.5
s-39.334 -38.666 -50.001 -66.999s-18.167 -56.333 -22.5 -84s-6.5 -57.834 -6.5 -90.501v-778c0 -176.667 54 -265 162 -265c108.667 0 163 88.333 163 265zM667.005 1937l-215 442h283l137 -442h-205zM349.005 1937l-215 442h285l137 -442h-207z" />
    <glyph glyph-name="uni020D" unicode="&#x20d;" horiz-adv-x="973" 
d="M561 335v646.001c0 66 -25.667 99 -77 99c-46 0 -69 -33 -69 -99v-646c0 -14.667 0.5 -26.834 1.5 -36.501s3.5 -21 7.5 -34s11 -22.833 21 -29.5s23 -10 39 -10c51.333 0 77 36.667 77 110zM78 339.001l0.00195312 555c0 139.333 32.833 247.5 98.5 324.5
s168.167 115.5 307.5 115.5s242.666 -38.5 309.999 -115.5s101 -185.167 101 -324.5v-555c0 -108.667 -40.333 -197.167 -121 -265.5s-177.334 -102.5 -290.001 -102.5c-72.667 0 -139.667 14.833 -201 44.5s-110.833 73 -148.5 130s-56.5 121.5 -56.5 193.5zM543.002 1436
l-215 442h283l137 -442h-205zM225.002 1436l-215 442h285l137 -442h-207z" />
    <glyph glyph-name="uni020E" unicode="&#x20e;" horiz-adv-x="1221" 
d="M84 592l0.00292969 604.999c0 425.333 175.333 638 526 638c351.333 0 527 -212.667 527 -638v-596c0 -72 -5.33301 -138.5 -16 -199.5s-28.834 -118.833 -54.501 -173.5s-58.334 -101.167 -98.001 -139.5s-89.834 -68.5 -150.501 -90.5s-130 -33 -208 -33
c-77.333 0 -146.333 10.833 -207 32.5s-110.667 51 -150 88s-71.833 82.333 -97.5 136s-44 110.834 -55 171.501s-16.5 127 -16.5 199zM773.003 509.999l0.00195312 778c0 177.333 -54.333 266 -163 266c-32.667 0 -60.334 -8.16699 -83.001 -24.5
s-39.334 -38.666 -50.001 -66.999s-18.167 -56.333 -22.5 -84s-6.5 -57.834 -6.5 -90.501v-778c0 -176.667 54 -265 162 -265c108.667 0 163 88.333 163 265zM531.005 1932h-171.998c0 73.333 23.667 133 71 179s108 69 182 69s134.667 -23 182 -69s71 -105.667 71 -179
h-172c0 18.667 -2.33301 37 -7 55s-13.334 34.5 -26.001 49.5s-28.667 22.5 -48 22.5s-35.333 -7.5 -48 -22.5s-21.334 -31.5 -26.001 -49.5s-7 -36.333 -7 -55z" />
    <glyph glyph-name="uni020F" unicode="&#x20f;" horiz-adv-x="973" 
d="M561 335v646.001c0 66 -25.667 99 -77 99c-46 0 -69 -33 -69 -99v-646c0 -14.667 0.5 -26.834 1.5 -36.501s3.5 -21 7.5 -34s11 -22.833 21 -29.5s23 -10 39 -10c51.333 0 77 36.667 77 110zM78 339.001l0.00195312 555c0 139.333 32.833 247.5 98.5 324.5
s168.167 115.5 307.5 115.5s242.666 -38.5 309.999 -115.5s101 -185.167 101 -324.5v-555c0 -108.667 -40.333 -197.167 -121 -265.5s-177.334 -102.5 -290.001 -102.5c-72.667 0 -139.667 14.833 -201 44.5s-110.833 73 -148.5 130s-56.5 121.5 -56.5 193.5zM418.002 1450
h-171.998c0 73.333 23.667 133 71 179s108 69 182 69s134.667 -23 182 -69s71 -105.667 71 -179h-172c0 18.667 -2.33301 37 -7 55s-13.334 34.5 -26.001 49.5s-28.667 22.5 -48 22.5s-35.333 -7.5 -48 -22.5s-21.334 -31.5 -26.001 -49.5s-7 -36.333 -7 -55z" />
    <glyph glyph-name="uni0210" unicode="&#x210;" horiz-adv-x="1134" 
d="M471 1051l104.001 -0.00292969c28 0 52 9.33301 72 28s34.5 42.334 43.5 71.001s15.333 55 19 79s5.5 46.667 5.5 68s-1.5 43.333 -4.5 66s-8.33301 47.834 -16 75.501s-20.334 50.334 -38.001 68.001s-39.167 26.5 -64.5 26.5h-121v-482zM107.001 -0.00292969
l0.00292969 1800h396c90 0 169.167 -8.5 237.5 -25.5s128.166 -43.667 179.499 -80s90.333 -85.333 117 -147s40 -135.5 40 -221.5c0 -37.333 -1.33301 -70.666 -4 -99.999s-8.83398 -62.833 -18.501 -100.5s-22.834 -71 -39.501 -100s-40.667 -57.5 -72 -85.5
s-68.333 -51.333 -111 -70l282 -870h-377l-206 829h-60v-829h-364zM603.004 1901l-215 442h283l137 -442h-205zM285.004 1901l-215 442h285l137 -442h-207z" />
    <glyph glyph-name="uni0211" unicode="&#x211;" horiz-adv-x="714" 
d="M94 0l0.000976562 1305h335v-106c51.333 83.333 111.333 125 180 125c19.333 0 49.666 -3.33301 90.999 -10v-284c-62 6.66699 -105.667 10 -131 10c-46 0 -80.833 -14.167 -104.5 -42.5s-35.5 -68.833 -35.5 -121.5v-876h-335zM529.001 1406l-215 442h283l137 -442h-205
zM211.001 1406l-215 442h285l137 -442h-207z" />
    </font>
</defs>
</svg>
