<?xml version="1.0" standalone="no"?>
<!DOCTYPE svg PUBLIC "-//W3C//DTD SVG 1.1//EN" "http://www.w3.org/Graphics/SVG/1.1/DTD/svg11.dtd" >
<svg xmlns="http://www.w3.org/2000/svg">
<metadata>
Created by FontPrep 20130207 at Sat Jan 18 17:32:07 2014
 By Nick Cates
Copyright 2014 Adobe Systems Incorporated. All rights reserved.
</metadata>
<defs>
<font id="3065ef1791917839bc3210a36e73ee2e" horiz-adv-x='1024' >
  <font-face 
    font-family="ncds"
    font-weight="400"
    font-stretch="normal"
    units-per-em="2048"
    panose-1="0 0 0 0 0 0 0 0 0 0"
    ascent="1638"
    descent="-410"
    bbox="-20 -365 2705 2023"
    underline-thickness="102"
    underline-position="-102"
    unicode-range="U+0020-F063"
  />
<missing-glyph horiz-adv-x="512" 
 />
    <glyph glyph-name=".notdef" horiz-adv-x="512" 
 />
    <glyph glyph-name=".null" horiz-adv-x="0" 
 />
    <glyph glyph-name="nonmarkingreturn" horiz-adv-x="681" 
 />
    <glyph glyph-name="space" unicode=" " horiz-adv-x="512" 
 />
    <glyph glyph-name="ncd_copyright" unicode="&#xf000;" horiz-adv-x="1673" 
d="M117 -180h-117v366h121q70 0 98 -49q16 -27 23 -90v-37q0 -108 -30 -149t-95 -41zM88 1659q27 0 27 59h49l-6 -37q0 -29 -31 -51q-16 -6 -41 -6t-39 6t-21 22t-16 42v24q-2 9 -2 25t2 26v23q2 23 13 37q6 14 22 26q49 20 84 0q14 -10 18 -22q12 -16 13 -51h-45
q0 47 -31 47q-14 0 -23 -21q-2 -2 -2 -10l-2 -16v-86q9 -33 15 -35t16 -2zM14 1239q0 172 180 172t181 -162q0 -74 -49 -145l-43 -43l-68 -62q-52 -52 -59 -86h221v-94h-363q0 81 31 139q29 44 40 58t58 61l50 45l32 33q6 8 8 16l5 5q2 6 8 20t6 23l2 18v20q0 76 -57 76
q-58 0 -64 -65q-2 -22 -4 -29v-22h-115v22zM59 334h-43v235h56l57 -161v161h43v-235h-53l-60 164v-164zM104 133h-28v-258h30q18 0 33 6q18 16 29 64v28q2 11 2 33t-2 31v24q-10 55 -29 62q-15 10 -35 10zM199 1743q0 16 2 26v23q0 38 35 63q20 8 43 9q51 0 63 -35
q4 -4 9 -29t5 -31v-51q0 -45 -14 -59q-12 -35 -51 -35t-55 7q-25 11 -35 63v24q-2 9 -2 25zM272 569v-235h-47v235h47zM250 1798q0 -6 -4 -14v-80q4 -12 4 -16q0 -29 30 -29t31 63v21q0 84 -32 86q-29 0 -29 -31zM526 -119v-61h-209v366h203v-61h-129v-84h123v-61h-123v-99
h135zM369 492q0 -14 -2 -21v-45q2 -8 2 -20q8 -33 14 -39q16 -6 27 0q8 0 16 26v10q2 10 2 21h47q0 -30 -12 -68q-8 -8 -25 -20q-18 -6 -42 -6t-40 10q-12 4 -23 24t-11 34q0 16 -3 28v51q-1 44 13 65q14 22 24 23q16 10 51 10t56 -30q10 -25 10 -56h-47q0 51 -29 52
q-28 0 -28 -49zM473 1720h-24v-92h-50v232h82q16 0 31 -9q6 0 12 -7t9 -8q3 -2 11 -30q7 -28 -5 -47q-12 -39 -66 -39zM596 1411h6q55 0 88 -16q96 -35 96 -273q0 -134 -26 -219q-37 -92 -154 -92h-4q-106 0 -149 59q-29 57 -37 154l-2 72q0 154 26 219q41 96 156 96z
M467 1825h-18v-70h20q29 0 30 35t-32 35zM567 334h-49v235h49v-92l62 92h49l-64 -100l72 -135h-53l-47 96l-19 -27v-69zM666 1200q0 133 -64 133q-18 0 -35 -10q-32 -32 -32 -137v-168q0 -133 67 -133q10 0 31 10q23 20 31 96l2 43v166zM629 1628v92l-60 140h54l28 -91h2
l33 91h51l-61 -140v-92h-47zM817 -76q0 -110 -123 -108h-4q-117 0 -117 104v14h76v-34q4 -12 10 -17q4 -14 39 -14q41 0 43 45q0 20 -14 37q-23 18 -33 18q-10 -1 -45 17q-34 18 -52 36t-17 66q0 106 112 107q49 0 82 -23q12 -12 25 -31q8 -33 8 -45v-10h-70q0 18 -10 39
q-16 23 -53 10q-10 -4 -10 -10q-9 -9 -10 -28t8 -27q4 -12 28 -23l58 -24q65 -33 65 -66q4 -12 4 -33zM709 477q0 100 79 98q25 0 41 -8q31 -27 31 -49l2 -29h-49q0 31 -5 41q-6 10 -18 10t-21 -6q-9 -8 -9 -19t-4 -23v-43q0 -27 4 -43q0 -25 12 -39q20 -6 30 1t12 18
q1 11 1 38h49v-18q-6 -55 -37 -70q-14 -6 -39 -6q-53 0 -65 35q-6 3 -12 38l-2 23v51zM915 1655v-10q4 -8 11 -15v-2h-52q-4 8 -4 12t-2 7v49q0 31 -26 30h-27v-98h-47v232h86q61 0 61 -60q0 -52 -36 -57q31 -8 34 -41v-31q2 -8 2 -16zM840 1825h-25v-66h21q14 0 26 6
q8 12 8 27q1 33 -30 33zM952 819v418h-116v78h10q121 0 139 96h90v-592h-123zM958 186v-366h-73v366h73zM1012 569l65 -235h-51l-12 49h-62l-10 -49h-51l61 235h60zM985 528h-2l-22 -104h47zM1014 1860v-232h-47v232h47zM1108 -18q0 -113 51 -113q17 0 31 14t14 43v37h-47
v55h119v-198h-55v35q-27 -39 -68 -39t-66 10q-51 34 -51 137v90q0 51 18 84t46 45q18 12 57 13q115 0 115 -117h-72l-2 20q0 8 -7 18t-7 14q0 3 -6 3q-8 8 -28 8q-20 -1 -29 -29t-13 -100v-30zM1138 1624q-73 0 -73 68q-2 8 -2 26v56q0 8 6 32t10 27q23 31 62 31
q68 0 71 -74h-43q0 30 -18 35q-4 4 -10 4q-29 0 -33 -80v-18l2 -21q0 -51 31 -51q10 0 28 18v9q2 2 2 8v24h-32v33h75v-123h-34v21q-10 -25 -42 -25zM1147 334v196h-49v39h149v-39h-51v-196h-49zM1579 1249q0 -69 -23 -100q0 -4 -26 -45q-27 -27 -45 -43l-66 -62
q-47 -42 -53 -62q-6 -19 -8 -24h223v-94h-362q0 123 71 199q8 10 58 59l82 78q2 8 15 29t13 53v20q0 76 -59 76q-20 0 -35 -10q-16 -16 -24 -30t-7 -54v-22h-114v22q0 172 180 172t180 -162zM1309 1731v-103h-47v232h47v-91h53v91h47v-232h-47v103h-53zM1421 373v-39h-137
v235h133v-39h-84v-53h80v-39h-80v-65h88zM1417 -180h-69v366h86l88 -249h2v249h67v-366h-82l-92 256v-256zM1495 1628v193h-51v39h149v-39h-51v-193h-47zM1531 329q-79 0 -79 68v11h47v-7q0 -36 33 -36q10 -2 18 6t8 23t-8 24l-12 8l-20 6q-8 6 -22 8t-26 19q-14 12 -14 47
q0 70 74 69h14q12 0 37 -14q21 -21 23 -51v-6h-48q0 34 -26 37q-6 0 -8 -2h-4q-12 -8 -13 -17v-8q0 -16 2 -20t19 -13l37 -16q25 -10 36 -27q8 -8 9 -16l2 -21q0 -72 -79 -72z" />
    <glyph glyph-name="nickcates" unicode="&#xf001;" horiz-adv-x="2549" 
d="M584 1313q0 -12 10 -37l244 -531l-136 -225q-25 16 -90 45t-104 29q-74 0 -100 -45q-29 -42 2 -103l18 -45q27 -63 105 -113q79 -50 161 -50t105 55l8 18l340 -192l-12 -17q-51 -82 -145 -139t-199 -57h-7q-152 0 -436 174q-225 141 -311 330q-43 88 -43 174v6
q2 90 49 164t135 114t195 43l-361 787l369 -189q20 72 93 118q74 46 192 46t262 -76t219 -186l20 -43l244 2h14q328 0 626 -181t439 -484q72 -152 72 -289q0 -252 -238 -361q-114 -49 -282 -51t-246 -4l-207 -2h-178l-2 2l-590 1286q-25 37 -69 61q-44 23 -92 23
q-46 0 -60 -22t-14 -35zM1898 305q133 0 191 84q23 35 27 88v10q0 45 -25 101l-84 182q-53 113 -184 196t-259 83t-153 -60q-8 -25 -8 -41l2 -22q6 -35 25 -76l253 -549h56q61 4 159 4z" />
    <glyph glyph-name="flickr" unicode="&#xf002;" horiz-adv-x="2678" 
d="M10 760q0 240 168 414t404 174t411 -168q174 -168 174 -396q1 -228 -165 -408q-166 -179 -397 -179q-231 -1 -413 161t-182 402zM1378 782q0 238 168 408t407 170t411 -162t171 -412q0 -250 -168 -417q-167 -166 -399 -166t-412 170q-178 171 -178 409z" />
    <glyph glyph-name="delicious" unicode="&#xf003;" horiz-adv-x="2123" 
d="M0 -119v891h1001v-977h-917q-28 0 -56 28t-28 58zM1100 872v144l145 -144h-145zM1516 872h-144l-272 279v137zM1782 872h-142l-540 543v144zM2058 872h-135l-823 820v141zM2089 1135v-160l-856 864l149 2zM2091 1415v-145l-567 571l147 -2zM2091 1694v-140l-274 287
l135 -2zM2091 1843v-55l-51 55h51z" />
    <glyph glyph-name="etsy" unicode="&#xf004;" horiz-adv-x="2582" 
d="M731 422q-96 14 -207 14l-377 -10q-57 0 -84 2h-38q-23 -5 -27 18q2 27 49 35q51 4 62 19q27 63 26 145v14q-6 217 0 396q1 111 -7 167t-54 68q-33 4 -43 10t-11 25q2 18 29 18h187l161 -2q203 0 295 19h6q25 0 25 -29l-10 -61l2 -37q2 -14 2 -47t-31 -33q-16 14 -16 33
v18q0 8 -6 21q-34 57 -176 57t-234 -18q-18 -43 -18 -111t6 -209h22q43 0 133 -10l47 -2l33 2q37 4 64 16q25 12 33 49t24 56q31 0 31 -37l-6 -37q-6 -47 4 -121t-19 -88q-27 8 -36 45q-15 63 -87 70h-73l-133 -10h-25q-17 -44 -21 -191v-27q0 -29 5 -69q0 -43 23 -75
t139 -32t212 35q58 18 72 38t18 62q10 45 23 56q76 -11 25 -121q-27 -59 -14 -85t-5 -46zM1057 965v-18q0 -13 1 -37t-5 -76q-18 -195 10 -279q23 -53 78 -55q18 0 52 18t54 6q0 -34 -43 -72t-118 -38q-74 0 -107 49q-29 35 -33 100v19l15 235v10q0 49 -23 88q-12 22 -76 37
q-8 3 -14 13q6 33 22 39q12 4 20 5t19 9q35 20 68 88q10 16 27 49q16 33 28 47h12q23 -20 11 -80t-4 -88q27 -8 47 -6l112 2q29 -4 41 -12q0 -35 -4 -53h-190zM1581 471h4q51 2 82 29t31 71t-30 68q-30 25 -47 33t-49 21t-58 25t-55 24q-27 13 -55 41q-28 29 -33 51t-5 47
q-4 90 90 139q43 23 113 27h10q59 0 121 -19q16 4 22 10t19 13h4q23 0 18 -31l-8 -55q0 -23 1 -55q2 -59 -34 -54q-14 18 -19 41q-20 92 -134 92h-13q-92 -8 -92 -78v-6q0 -29 24 -53t48 -34q24 -12 74 -32q51 -20 76 -31q24 -11 56 -37q54 -44 54 -122q0 -12 -4 -33
q-18 -94 -113 -131q-51 -20 -98 -20h-10q-37 4 -70 14t-65 10t-45 -14q-20 -8 -43 -4q-4 12 -4 22t4 17l12 49l-6 92q0 49 43 49q8 -14 14 -49q0 -72 71 -104q48 -23 99 -23zM1847 1032l66 -4h8l156 2q35 0 53 -12q4 -27 -27 -33q-4 -2 -20 -2t-25 -12q0 -80 51 -199
q15 -29 39 -79t39 -109q31 31 44 70t39 91q26 53 44 82t28 80q11 51 -20 64l-24 8q-31 8 -39 39q14 16 62 13t87 -3t74 1t47 -7q-4 -29 -43 -47q-47 -25 -59 -37q-27 -31 -45 -76t-59 -131t-95 -213q-54 -126 -110 -220t-106 -136t-116 -43q-29 0 -49 20q-8 13 -8 27t12 43
q25 14 59 12t52 -16q59 27 106 98q47 76 48 144t-44 168q-46 101 -78 197q-56 167 -155 181v35l6 4h2z" />
    <glyph glyph-name="facebook" unicode="&#xf005;" horiz-adv-x="2211" 
d="M1935 1864q47 0 80 -33t33 -80v-1823q0 -47 -33 -80t-80 -32h-522v792h266l39 310h-305v198q0 74 32 112t122 38h164v276q-86 12 -253 12t-276 -108t-108 -301v-227h-267v-310h267v-792h-981q-47 0 -80 32t-33 80v1823q0 47 33 80t80 33h1822z" />
    <glyph glyph-name="google" unicode="&#xf006;" horiz-adv-x="2002" 
d="M1292 -53q184 0 318 67v31q0 18 2 33v135q-2 35 -2 96v103h-424l215 131h604l-88 -101v-469l-416 -143q-145 -35 -320 -35t-354 31q-33 10 -103 30q-181 52 -241 91q-78 45 -237 205q-121 117 -189 335q-57 174 -57 335t27 229q102 283 266 454q229 244 622 318
q111 20 239 20q128 1 226 -27t312 -110t217 -115q0 -4 -2 -4l-201 -207l-133 -34l63 137q-247 203 -422 225q-82 10 -145 10q-150 0 -289 -78q-442 -256 -442 -737v-41l2 -45q20 -237 145 -445t355 -327q193 -98 452 -98z" />
    <glyph glyph-name="google_plus" unicode="&#xf007;" horiz-adv-x="2336" 
d="M1178 1411q0 -246 -154 -358q-82 -59 -117 -107q-51 -68 6 -127q44 -50 161 -140q116 -91 171 -210q29 -68 29 -154q0 -270 -203 -401q-181 -119 -457 -119t-445 106t-169 312q0 234 229 342q168 78 478 86q4 41 -29 72q-10 10 -30 25t-23 35q-4 19 1 57t1 71h-33
q-326 0 -426 211q-39 86 -45 164l-2 41q0 145 74 273t270 200q145 53 379 53l360 -8h66q-11 -41 -63 -53q-17 -4 -47 -8t-77 -10t-71 -25q50 -30 69 -47q79 -55 95 -199q2 -27 2 -82zM233 240q0 -62 29 -114t35 -58q113 -133 334 -134q151 0 265 62q193 104 191 254
q0 10 -4 39q-12 86 -59 140t-144 92t-196 38q-161 -1 -277 -67q-160 -92 -174 -238v-14zM596 1735q-165 0 -211 -197q-10 -54 -10 -96q0 -121 41 -210t94 -138q84 -84 192 -84t170 112q33 56 39 114q7 58 7 112t-35 144q-35 89 -97 156t-137 83q-33 4 -53 4zM2245 1440
q68 0 100 -2v-117h-401v-395h-117v393q-82 4 -128 4t-69 -2h-200v117h397q2 34 2 102t-2 100v52q0 49 4 147h113v-397q147 -6 149 -6l49 2q35 2 103 2z" />
    <glyph glyph-name="dribbble" unicode="&#xf008;" horiz-adv-x="2185" 
d="M0 820q0 208 80 395t220 329t326 220q186 79 396 79q209 0 396 -79q188 -79 330 -219t222 -328q80 -187 80 -395t-80 -395t-223 -331t-329 -222q-186 -79 -396 -79q-424 0 -721 301q-143 144 -222 330t-79 394zM291 772q-20 0 -58 4l-61 2q2 -305 223 -534
q260 387 713 544q-27 55 -51 123q-406 -139 -766 -139zM291 946q362 0 692 125q-147 270 -352 506q-180 -96 -300 -260t-157 -371h117zM1022 -33q154 0 270 41q-25 311 -127 619q-405 -133 -643 -504q244 -156 500 -156zM801 1640q195 -238 342 -507q252 113 471 301
q-244 238 -592 237q-110 0 -221 -31zM1214 975q29 -61 62 -141q201 34 302 34t298 -47q0 254 -152 479q-242 -206 -510 -325zM1331 670q80 -248 125 -586q156 90 261 238t143 331q-281 68 -529 17z" />
    <glyph glyph-name="linked_in" unicode="&#xf009;" horiz-adv-x="2131" 
d="M123 1530v10q0 88 58 152t143 63h4q90 0 151 -61q66 -61 66 -154v-10q-1 -88 -61 -146t-146 -59h-2q-86 0 -150 59q-63 64 -63 146zM539 1204v-1227h-414l2 1227h412zM1149 799v-822l-414 3v1224h414v-119q4 0 31 23q51 51 178 88q68 18 172 18q229 0 328 -139
q61 -82 75 -231v-867l-420 3v817q-12 35 -55 71t-117 37h-4q-82 -1 -135 -39t-53 -67z" />
    <glyph glyph-name="about_me" unicode="&#xf010;" horiz-adv-x="2635" 
d="M530 1229q108 0 181 -48q72 -48 104 -132h4q45 71 128 125t209 54t208 -93q102 -117 102 -330v-580h-241v541q0 262 -176 262q-121 0 -175 -131q-12 -35 -12 -82v-590h-239v570q0 109 -43 171t-118 62t-123 -41q-79 -67 -79 -180v-582h-242v688q0 123 -8 295h213l10 -147
h7q39 68 106 113q76 55 184 55zM1602 696q0 225 122 371q132 162 356 162t333 -158q92 -127 92 -319q0 -72 -6 -105h-660q6 -125 93 -190t218 -65t265 46l36 -170q-137 -63 -361 -63t-353 135q-135 131 -135 356zM2271 821q0 94 -39 154q-54 84 -162 84t-164 -70t-67 -168
h432z" />
    <glyph glyph-name="email" unicode="&#xf011;" horiz-adv-x="2869" 
d="M2705 -205h-2701l-4 2048h2705v-2048zM852 844l-668 667v-1337zM1341 522h-10q-66 0 -127 29q-60 29 -96 59t-104 97l-697 -695h2054l-686 684q-94 -94 -165 -134t-169 -40zM1337 745q74 0 117 24t100 81l813 809h-2041l802 -799q2 -2 25 -24t44 -44q44 -44 124 -47h16z
M2505 160v1345l-670 -671z" />
    <glyph glyph-name="lastfm" unicode="&#xf012;" horiz-adv-x="2590" 
d="M1769 1122q0 -92 35 -116q100 -72 285 -125l25 -9q21 -7 64 -18q42 -12 57 -22q16 -9 38 -20t37 -23q16 -13 29 -23q75 -61 101 -128t26 -181q0 -193 -130 -317t-349 -124h-27q-129 0 -241 72t-165 170q-82 146 -182 408t-207 444q-47 82 -175 144t-255 63h-10
q-219 0 -375 -160t-155 -383v-4q0 -240 153 -397q156 -166 397 -166h7q190 0 344 141q76 70 116 139l84 -206q-24 -28 -85 -87q-60 -58 -119 -92q-187 -98 -381 -98h-11q-124 0 -246 55t-221 154q-225 221 -225 543v14q0 328 225 547q199 188 486 203q225 -16 377 -97
q109 -57 174 -139q16 -27 39 -53q12 -25 20 -25q25 -26 49 -78t134 -328q112 -276 219 -472q61 -119 233 -119q106 0 209 51q43 20 76 85t33 127t-31 101q-64 78 -217 129q-18 6 -41 14t-35 11q-135 39 -219 100q-156 105 -156 287q-1 182 109 280t280 97q76 0 140 -9
t147 -102q45 -51 70 -92l-148 -74q-64 81 -96 91q-3 2 -17 8t-22 10h-6q-4 -2 -8 -2l-86 8q-29 0 -113 -59q-39 -27 -45 -62q-17 -41 -19 -61v-25z" />
    <glyph glyph-name="myspace" unicode="&#xf013;" horiz-adv-x="1994" 
d="M432 236v215h-432v407q0 199 88 293q72 78 184 78t191 -74q49 -53 61 -76q51 61 123 88t139 27q121 0 220 -98q39 -41 55 -66l18 -31q68 53 187 101q53 18 123 18h6q164 0 295 -112q137 -123 159 -318v-872h-925v420h-492zM80 1462q0 80 51 148q55 66 137 66t147 -58
q65 -57 64 -139v-11q0 -80 -56 -138t-138 -58t-144 55q-61 55 -61 135zM526 1489v4q0 102 76 174t174 72t171 -79t73 -173t-74 -170t-175 -76t-173 76t-72 172zM1051 1520q0 139 98 241q99 103 237 103t239 -104t101 -239q0 -137 -106 -237t-237 -100t-231 98t-101 238z" />
    <glyph glyph-name="newsvine" unicode="&#xf014;" horiz-adv-x="1206" 
d="M227 1485q-24 -6 -28 -6t-6 -2l-21 -2q-6 -2 -29 -2q-57 0 -100 44t-43 103t43 103t100 44t107 -38q49 -39 51 -95v-35q-2 -2 -2 -18l180 -127v369h129v-658l180 125v10q-2 0 -2 7v24q0 68 45 109t107 41t106 -42q44 -41 43 -105q0 -64 -44 -108t-87 -45t-57 5
q-10 8 -39 14l-252 -178v-412l180 125q-4 33 -4 45q0 50 46 96t110 46t106 -42t42 -108t-47 -106q-46 -40 -89 -43q-43 -2 -61 7t-31 13l-252 -172v-418l185 125q-7 28 -7 41q0 57 46 101t105 42q60 0 105 -40t45 -106t-51 -114q-49 -39 -92 -39q-43 1 -53 9t-31 14
l-250 -174v-137h-129v420l-258 180q-25 -19 -35 -21t-57 -1t-89 47t-42 103q0 58 44 104t101 46t105 -40t49 -95v-22q-2 -4 -2 -11v-8q-2 -2 -2 -10l184 -123v408l-256 182q-12 -6 -29 -16t-51 -9l-2 -2q-45 0 -94 43q-47 42 -47 104t44 110t102 48t105 -42q48 -42 50 -99
q2 -31 -3 -39t-5 -16l186 -115v412z" />
    <glyph glyph-name="skype" unicode="&#xf015;" horiz-adv-x="2166" 
d="M0 1274q0 231 170 400t387 169q145 0 274 -74q175 43 367 3t372 -157q180 -118 275 -294q131 -230 131 -518q0 -57 -10 -170q68 -123 68 -261t-56 -256t-151 -196q-162 -125 -329 -125t-288 76q-231 -39 -439 16t-376 199q-227 193 -297 442q-43 152 -43 268t21 214
q-76 125 -76 264zM647 610q-45 0 -80 -32t-35 -76v-10q0 -123 149 -209t363 -86t355 90q147 90 147 268v10q0 131 -62 209t-212 127q-53 16 -152 39q-186 35 -268 80q-47 29 -47 74v2q0 76 72 112q43 23 116 23h23q159 0 221 -88q41 -51 71 -67t62 -17h10q47 0 84 30t37 72
q0 6 -2 17v4q-27 104 -131 174q-133 88 -356 88h-13q-180 0 -320 -99t-140 -249q0 -190 141 -279q72 -47 262 -90q139 -35 248 -65q78 -20 78 -105q0 -63 -50 -109t-141 -47q-18 0 -33 5l-53 2q-120 0 -188 96q-71 106 -150 106h-6z" />
    <glyph glyph-name="picasa" unicode="&#xf016;" horiz-adv-x="2183" 
d="M0 827q0 240 102 441q150 291 455 458l389 -350l-911 -823q-35 133 -35 274zM72 438l422 381l-2 -868q-117 85 -153 113t-92 92q-55 64 -81 110q-26 47 -52 93t-42 79zM612 377h1346q-125 -248 -334 -393q-176 -123 -436 -179q-57 -10 -158 -10q-101 1 -235 31t-183 63
v488zM1008 1843q206 0 446 -94v-680l-776 700q124 74 330 74zM1565 481v1202q135 -49 276 -229q168 -219 211 -467q16 -92 16 -160q1 -123 -65 -346h-438z" />
    <glyph glyph-name="aim" unicode="&#xf017;" horiz-adv-x="1697" 
d="M1163 1024h23q76 0 135 24t143 35l105 -264l-203 -86q-29 -12 -81 -22q-88 -17 -116 -88v-13q-2 -4 -2 -24q0 -39 74 -99q119 -107 155 -163t84 -122t126 -202l-275 -162q-35 45 -65 89q-70 105 -222 220q-150 121 -197 121q-48 0 -159 -129q-10 -10 -36 -40
q-101 -116 -169 -159q-139 -86 -368 -145l-115 357q41 15 97 32q108 32 171 76q182 127 219 236q19 51 29 191t39 212t66 127t116 139q125 -45 219 -86q142 -55 207 -55zM725 1521q0 126 90 224t218 98q127 0 225 -91t98 -223t-94 -226q-94 -95 -224 -95t-221 95
q-92 92 -92 218z" />
    <glyph glyph-name="reddit" unicode="&#xf018;" horiz-adv-x="2613" 
d="M0 893v4q0 129 92 213t227 84h11q115 0 213 -84q41 14 141 60t198 70q99 26 158 30t160 18q0 229 88 349t252 120q104 0 266 -57q12 39 89 91t171 52q94 1 186 -75q91 -76 91 -199t-86 -201t-193 -78h-6q-147 0 -237 119q-49 68 -49 172q-48 17 -106 35t-126 18
q-123 0 -182 -133q-25 -51 -25 -101t-10 -118q104 -4 174 -14q98 -20 181 -43t274 -115q2 2 62 35q90 49 165 49q121 0 218 -82t97 -198t-49 -184q-49 -69 -123 -97q0 -7 6 -29t7 -65q0 -178 -146 -369q-117 -152 -373 -264t-552 -111h-23q-315 0 -584 121t-405 332
q-84 133 -84 291q0 59 10 86q-50 16 -114 102t-64 166zM131 887v-6q1 -47 19 -70q38 -47 59 -63q4 8 17 30t27 51q35 77 150 175q18 18 33 28q-58 37 -114 37q-56 -1 -98 -25t-68 -59q-25 -35 -25 -98zM299 545q1 -256 281 -441q280 -184 666 -184t670 175q286 175 286 442
q0 291 -316 473q-283 160 -646 160t-642 -171q-139 -84 -219 -204t-80 -250zM861 813q59 0 101 -42t42 -101q0 -58 -41 -98t-99 -40t-106 38q-47 38 -47 95q0 56 46 102t104 46zM1060 228q76 -18 225 -19q149 0 317 94q51 29 79 10q45 -29 31 -65q-6 -27 -12 -31
q-76 -59 -201 -92q-139 -43 -261 -43t-269 48t-176 103q-25 31 12 64q31 47 98 0q81 -51 157 -69zM1495 663q0 60 44 105t106 45q47 -8 98 -59q45 -41 45 -76v-4q0 -58 -40 -100t-98 -42t-107 35q-48 36 -48 96zM1899 1564q0 -66 48 -109q49 -44 113 -44t109 42t45 101v7
q0 67 -46 111t-108 44t-112 -43q-49 -43 -49 -109zM2367 874v19q0 82 -57 129t-133 47h-6q-43 0 -68 -10q-18 -12 -43 -27q45 -39 68 -52t57 -58l105 -170q27 20 39 30t25 36t13 56z" />
    <glyph glyph-name="stumble_upon" unicode="&#xf019;" horiz-adv-x="2732" 
d="M33 410v368h459v-368q0 -57 40 -101q40 -43 98 -43t98 43t40 101v835q0 240 176 422q176 176 423 176t423 -176q174 -178 174 -422v-168l-272 -84l-191 84v168q0 57 -39 98t-95 41t-95 -41t-39 -98v-852q0 -250 -177 -416q-177 -165 -423 -165t-423 175t-177 423z
M1501 393v377l191 -84l272 84v-377q0 -61 39 -102t99 -41t102 41q41 41 41 102v367h454v-367q0 -250 -172 -426q-176 -172 -423 -172t-425 172q-178 178 -178 426z" />
    <glyph glyph-name="empty" unicode="&#xf020;" horiz-adv-x="681" 
 />
    <glyph glyph-name="youtube" unicode="&#xf021;" horiz-adv-x="2017" 
d="M168 -188v755h-168v127h487v-127h-165v-755h-154zM362 872v381l-208 590h174l118 -389h7l118 389h177l-207 -569v-402h-179zM807 461h141v-649h-141v75q-72 -82 -160 -82q-55 0 -74 23q-26 47 -26 90v543h141v-494l8 -39q6 -6 33 -6q39 6 59 27l19 18v494zM762 1051v370
q0 82 59 138q76 51 177 51t157 -58q59 -43 59 -131v-370q0 -100 -59 -140q-61 -61 -165 -61t-166 58t-62 143zM922 1430v-394q0 -12 4 -19t6 -13q10 -29 47 -29t57 18t21 43v394q0 23 -16 34t-25 17q-16 4 -39 4t-37 -19q-18 -11 -18 -36zM1198 -188h-141v882h141v-278
q8 8 28 19t33 23t69 11q56 0 95 -37q35 -55 35 -125v-358q0 -66 -35 -107q-27 -37 -90 -37q-20 0 -76 13q-55 37 -59 41v-47zM1309 -33v332q0 70 -52 72q-8 0 -15 -5t-21 -9t-23 -13v-407q12 -16 33 -25l33 -8q18 0 41 18q4 4 4 45zM1343 989v602h164v-555q0 -31 2 -35
q19 -12 35 -12q16 1 44 15t50 40v547h164v-719h-164v78q-20 -25 -45 -37l-49 -30q-49 -25 -94 -25t-78 37q-29 39 -29 94zM1532 -4v295q0 78 59 132t157 54t144 -45q53 -63 54 -141v-170h-269v-125q-1 -52 13 -68t48 -16t48 10q16 16 16 74v33h144v-33q0 -94 -54 -154
q-53 -47 -153 -47q-99 1 -153 55t-54 146zM1677 291v-64h125v64q0 23 -16 61q-16 8 -49 8t-45 -8q-15 -16 -15 -61z" />
    <glyph glyph-name="vimeo" unicode="&#xf022;" horiz-adv-x="2385" 
d="M1077 -102q-43 0 -71 14q-167 70 -261 440q-4 16 -21 81t-52 204q-34 139 -62 220t-48 152t-50 121q-32 50 -68 58t-106 -14t-92 -23q-22 0 -31 2q-33 2 -49 35q-12 33 -37 53v12q55 45 217 189t249 194q168 97 269 64q52 -14 98 -76t74 -154q54 -182 78 -467
q25 -284 127 -389q49 -51 92 -51h6q84 6 153 124q148 253 150 366q18 147 -57 196q-47 29 -145 29q-10 0 -33 -1t-35 -1q66 211 262 360q141 102 252 121q39 8 94 8h11q98 0 182 -34q49 -25 72 -58q41 -51 47 -121l2 -43q0 -152 -146 -478t-352 -605q-223 -307 -481 -457
q-109 -61 -230 -71h-8z" />
    <glyph glyph-name="wordpress" unicode="&#xf023;" horiz-adv-x="2390" 
d="M-20 832q0 236 90 445q90 210 249 368q160 159 364 243t428 84t431 -88t367 -245t250 -359t90 -426v-6q0 -227 -84 -436t-236 -367q-330 -342 -821 -342q-227 0 -433 86t-364 240q-159 155 -245 361t-86 442zM96 816q0 -242 92 -437q72 -145 199 -273t279 -202l-484 1356
q-86 -202 -86 -444zM379 1391l239 10q16 1 16 -23t-13 -28q-47 -12 -70 -15q-22 -2 -59 -6v-35l364 -1097l229 682l-159 446q-29 4 -39 8l-68 8q-10 7 -26 7t-17 12q0 27 11 35t53 8q16 -4 22 -2l150 -8h82q76 0 149 4l125 4q37 0 37 -31q0 -16 -11 -21t-44 -12l-95 -2v-41
l361 -1085q25 113 78 247q106 267 106 484q0 110 -120 290q-18 30 -22 40q-5 10 -12 25t-15 35t-10 32q-1 12 -3 26t-2 25v2q0 78 45 121t149 57q-150 127 -266 187q-199 102 -459 102q-259 0 -503 -156t-326 -329q29 0 35 -3t88 -3zM1094 -199h28q8 2 25 2q215 5 307 62
l-328 889l-305 -904q47 -49 273 -49zM2130 827q0 307 -111 490q-2 12 -5 12t-3 -12v-33q3 -16 3 -106t-25 -162l-369 -1082q186 127 299 268t174 351q37 125 37 274z" />
    <glyph glyph-name="xing" unicode="&#xf024;" horiz-adv-x="1800" 
d="M793 954l-340 -536h-453l348 583l-256 472h438zM1673 -205h-471l-457 805l738 1243h446l-700 -1237z" />
    <glyph glyph-name="yelp" unicode="&#xf025;" horiz-adv-x="1638" 
d="M0 543q0 39 22 137t25 127q6 78 43 108q16 16 53 23h2q39 0 234 -123q171 -114 227 -156q12 -16 26 -28t10 -34q-3 -22 -26 -39q-49 -36 -301 -73l-104 -12q-20 -2 -117 -14q-23 6 -38 0t-36 19q-20 26 -20 65zM158 1597q0 11 2 13v4q2 4 2 12q8 53 92 82q14 4 68 15
t145 45q92 34 192 34h13q29 -6 47 -39q12 -27 12 -53v-8l43 -744q4 -32 -9 -76q-18 -61 -73 -61q-20 -1 -42 13t-30 22t-30 35l-416 643q-2 4 -5 17t-7 24t-4 22zM272 -33v18q0 13 4 21t10 16q5 8 7 12q2 3 11 14t13 18l340 303q35 23 60 22q59 0 59 -84l-43 -469
q-25 -84 -84 -84q-60 10 -102 35q-104 49 -117 53q-158 57 -158 125zM913 736q0 26 31 73l256 350q39 39 72 39h8q39 0 88 -59l16 -23q6 -10 12 -18t10 -18q5 -10 34 -52q94 -123 94 -176t-53 -86l-424 -96q-8 -4 -23 -6q-80 -14 -112 18q-9 28 -9 54zM942 428q0 22 10 37
q27 33 123 14l414 -162q59 -35 59 -81v-13q-8 -42 -49 -88q-41 -45 -58 -64t-37 -40t-62 -71t-93 -50h-12q-43 8 -76 57l-211 412q-8 27 -8 49z" />
    <glyph glyph-name="yahoo" unicode="&#xf026;" horiz-adv-x="2560" 
d="M1016 1470v-100l-305 -55l426 -586l438 420h-322v106h830l-27 -86l-229 -20l-596 -547v-414h301v-139h-969v107l314 41v417l-560 701l-288 49l-25 106h1012zM1997 197l-49 -160l-174 59l41 158zM2470 997l-430 -680l-148 64l179 756z" />
    <glyph glyph-name="amazon" unicode="&#xf027;" horiz-adv-x="2287" 
d="M1126 -225q-651 0 -1114 430q-12 8 -12 16l2 10q10 14 33 0q506 -293 1114 -292q334 0 790 153q12 0 31 10t27 12q8 1 23 4t30 -19q14 -22 -16 -40q-49 -49 -95 -65q-141 -100 -375 -160t-438 -59zM618 817q0 293 261 391q89 50 237 68t211 18v35q0 6 1 35t0 40l-3 33
q-3 38 -27 68q-47 63 -129 64h-20q-147 -18 -180 -150q-14 -41 -41 -41l-238 23q-37 14 -31 53q37 188 181 278t309 91h49q231 0 365 -121q104 -88 104 -299v-496q0 -45 6 -63t8 -30q3 -12 11 -26t14 -29t26 -34q19 -20 31 -39q15 -38 -11 -62t-96 -83t-82 -71t-28 -13
q-16 0 -28 6q-69 54 -98 97t-40 58q-129 -120 -222 -148t-177 -28q-155 0 -259 98t-104 277zM969 860q0 -80 38 -127t109 -47h33q88 25 133 113q38 48 41 98q4 51 4 63v140h-90q-35 0 -88 -13q-180 -51 -180 -227zM2046 197q-72 0 -105 -5t-75 -10t-41 8q0 13 16 25
q29 16 56 34t92 27t111 9q46 -1 90 -13t52 -25q10 -13 11 -32v-10q0 -71 -43 -173t-109 -151q-8 -10 -18 -10h-8q-16 6 -2 18q43 121 51 154q31 104 10 129q-16 25 -74 25h-14z" />
    <glyph glyph-name="blip" unicode="&#xf028;" horiz-adv-x="2664" 
d="M4 733v658l8 12h273q10 -43 10 -107v-24q-4 -43 -4 -133l2 -82q82 29 160 28q186 0 320 -140q134 -139 134 -325t-137 -317q-141 -127 -324 -127q-231 0 -346 170q-96 143 -96 387zM614 632q0 70 -46 112t-116 42t-114 -42q-45 -42 -45 -114q0 -73 41 -116
q40 -43 112 -43t120 46t48 115zM1243 1403v-1206h-289l2 211l-4 524q0 276 11 471h280zM1315 738q0 186 10 327h281v-868h-289q6 129 2 241q-4 114 -4 300zM1589 1502q0 79 50 122t123 43t126 -53q49 -55 49 -128t-47 -123t-125 -50t-127 55t-49 134zM1663 514
q0 248 100 397q117 172 359 172q190 0 321 -131t131 -319t-131 -320q-127 -133 -321 -133q-82 0 -160 25v-346h-289q6 80 6 163t-8 219t-8 273zM2123 471q69 0 113 49t43 118q0 68 -41 108q-42 40 -110 40t-113 -42t-45 -110q0 -69 42 -116t111 -47z" />
    <glyph glyph-name="digg" unicode="&#xf029;" horiz-adv-x="2738" 
d="M666 1599v-1253h-662v879h383q10 -2 11 1t1 13v360h267zM399 965h-116v-361h116v361zM1063 1225v-879h-266v879h266zM1063 1599v-260h-266v260h266zM1855 1225v-1256h-661v260h395v84q0 9 2 13t1 6t-9 -1t-8 1t2 6v8h-383v879h661zM1589 965h-129v-347h4q10 6 9 -6
q-4 -10 0 -10t6 2h110v361zM2650 1225v-1256h-663v260h385v103q0 14 -15 14h-370v879h663zM2372 965h-119v-361h119v361z" />
    <glyph glyph-name="deviant_art" unicode="&#xf030;" horiz-adv-x="2498" 
d="M1307 1270q375 0 626 -88q401 -146 586 -400l-1149 -325l-266 536q78 14 160 15h28q76 -2 172 -21l109 -205l391 103q-143 95 -330 155t-391 60q-161 0 -319 -45l315 -639l-1149 -332q-76 188 -76 371l2 34q8 195 109 347q123 188 385 297l-150 290l361 47l121 -245h8
l12 4q221 37 428 41h17zM381 556q0 -42 20 -91l381 106l-170 349q-196 -128 -229 -308q-2 -14 -2 -56z" />
    <glyph glyph-name="behance" unicode="&#xf031;" horiz-adv-x="2623" 
d="M709 33h-697v1550h750q283 0 403 -164q72 -96 72 -237t-76 -224q-27 -43 -114 -88q239 -105 239 -370q0 -133 -69 -246q-43 -72 -113 -119q-59 -47 -174 -86q-104 -16 -221 -16zM705 715h-338v-412h331q121 0 190 45q68 45 68 172t-98 170q-40 25 -153 25zM659 1317h-292
v-340h331q78 0 166 37q62 38 62 142t-84 136q-99 25 -183 25zM1405 629q-1 281 151 437t402 157q139 0 260 -52q131 -72 190 -163q70 -113 86 -230t17 -221h-813q0 -166 117 -231q59 -47 150 -47t169 53q37 23 59 76h295q-10 -98 -93 -190q-153 -170 -429 -171
q-231 0 -395 131q-86 67 -127 180q-39 121 -39 271zM2259 1522v-160h-617v160h617zM1948 983q-110 0 -166 -62q-55 -62 -78 -173h500q-6 102 -74 178q-72 57 -182 57z" />
    <glyph glyph-name="fab" unicode="&#xf032;" horiz-adv-x="2785" 
d="M12 1323h596v-182h-381q-18 -27 -18 -88t4 -90v-41q0 -29 -2 -45h397v-183h-381q-18 -23 -18 -73v-342q0 -8 4 -46q-12 -6 -25 -6h-34q-47 0 -72 4l-35 2l-35 -2v1092zM1602 1059v-828h-166v82h-11q-25 2 -36 -22q-20 -25 -35 -29v-6q2 -12 -7 -17t-24 -8q-33 0 -37 -16
q-55 -10 -98 -10q-215 1 -340 119t-125 321t139 320q131 115 326 114q28 0 54 -10t61 -10q33 -25 61 -53t55 -48l19 27q0 20 -2 31l-2 26l2 17h166zM905 657q0 -115 77 -197t178 -81q101 0 196 110q28 35 47 54v182q0 33 -127 145q-25 23 -39 23h-133q-4 0 -10 -5t-4 -11
h-52q-14 -31 -37 -39q-27 -14 -45 -29q-6 -33 -28 -77t-23 -75zM1784 231v1092h166v-315l18 -15q18 2 32 20t32 29h6q40 0 68 16t65 17q188 1 340 -105q151 -106 151 -304t-124 -333q-124 -136 -322 -136q-111 0 -213 67q-10 8 -16 21q-7 12 -21 12t-17 -19t1 -30l-17 -23
q-12 6 -71 6h-78zM2234 377q100 0 166 84q65 84 80 201q-16 0 -16 24v39q-55 84 -101 133q-53 8 -65 35h-152q-4 0 -11 -5t-5 -11q-56 -7 -86 -45t-42 -56t-36 -51v-182q52 -82 110 -124t158 -42z" />
    <glyph glyph-name="disporia" unicode="&#xf033;" horiz-adv-x="2424" 
d="M-2 620q0 288 154 486t428 197q139 0 198 -19q100 -37 168 -143v590h416v-1774h-416v133q-72 -100 -157 -131t-203 -31q-289 0 -443 211q-145 193 -145 481zM681 1020q-165 0 -242 -123t-77 -300t76 -288q90 -135 250 -135t242 133q66 105 66 291t-68 293
q-82 129 -247 129zM1884 1731h209v-277l295 107l70 -189l-287 -96l182 -242l-162 -121l-182 252l-172 -252l-164 121l180 242l-282 96l49 189l264 -107v277z" />
    <glyph glyph-name="pintrest" unicode="&#xf034;" horiz-adv-x="2385" 
d="M1114 -297q-147 0 -307 43q6 27 19 47q71 110 108 275q35 137 59 217q5 13 13 -1t8 -16q100 -110 252 -110t270 70q119 70 195 182q143 209 143 489q0 53 -2 82q-18 256 -252 438q-193 150 -455 150q-349 0 -567 -201q-244 -221 -236 -500v-51q14 -150 76 -246
q48 -71 123 -116q31 -29 69 -10q13 8 20 48q7 41 18 54q18 39 -6 63q-10 10 -27 31q-43 66 -51 137q-2 20 -2 60q0 129 53 243q78 168 254 248q104 51 244 51q199 0 325 -102t141 -270q14 -206 -58 -404q-40 -109 -116 -178q-78 -76 -180 -76h-4q-86 0 -135 56
q-78 90 -19 247q3 17 36 110q32 93 42 177v12q0 94 -55 150q-40 35 -92 35q-90 0 -150 -77t-67 -204q-4 -10 0 -20q0 -47 10 -103q10 -27 18 -51t2 -45q-6 -23 -9 -33t-10 -28t-32 -140q-61 -228 -86 -363t-24 -239v-37q-594 279 -672 951v153q12 205 104 393t226 328
q285 285 725 326h137q438 -45 732 -337t323 -734q2 -18 2 -50l-2 -45q-23 -446 -324 -747q-205 -203 -477 -285q-145 -45 -303 -47h-27z" />
    <glyph glyph-name="fivehun_alt" unicode="&#xf035;" horiz-adv-x="2807" 
d="M2 842q0 294 169 480t452 185q119 0 219 -34q109 -43 184 -99q78 -51 160 -137q49 -53 147 -164q66 80 142 162q144 156 348 238q98 35 213 34q288 0 456 -187t168 -475q0 -289 -168 -481t-458 -196q-197 0 -394 127q-92 59 -160 128t-147 157q-4 -4 -62 -66
q-59 -62 -115 -118t-124 -101q-193 -127 -397 -127q-145 0 -264 55t-197 139t-125 206q-47 124 -47 274zM346 829q0 -127 75 -210t210 -82h2q139 0 268 96q82 57 118 94t97 102q-138 145 -212 199q-161 118 -283 117q-121 -1 -198 -95t-77 -221zM2030 1145
q-172 -1 -358 -191q-40 -40 -72 -74q-34 -34 -50 -51q116 -133 196 -186t144 -80t150 -26q129 0 204 84t74 215q0 131 -79 220t-209 89z" />
    <glyph glyph-name="fivehun" unicode="&#xf036;" horiz-adv-x="2664" 
d="M18 561h246q8 -82 60 -131t140 -49q87 0 152 70q54 63 56 161q0 47 -13 90q-55 135 -196 138q-63 0 -105 -23t-79 -74h-224l121 668h676v-203h-500l-47 -274l2 -2q94 92 251 92t261 -121q33 -35 60 -92q29 74 77 133q129 129 304 129q68 -1 166 -33t185 -124t120 -130
q113 134 188 190t135 73q61 25 141 24q190 0 304 -127q110 -114 110 -309q0 -94 -31 -174q-59 -179 -211 -242q-82 -35 -161 -35q-78 0 -152 27q-142 52 -227 143q-61 61 -96 101q-9 -7 -25 -25t-26 -26t-24 -24q-15 -16 -43 -47q-28 -30 -79 -65q-51 -36 -125 -60
q-75 -24 -157 -24t-158 35q-160 78 -211 223q0 -2 -2 -2v-2q-74 -162 -240 -231q-80 -31 -169 -30q-301 3 -415 216q-39 74 -39 166zM1260 831q-80 0 -132 -60t-51 -145q0 -84 48 -140t143 -56q78 0 178 66q45 30 78 59q20 25 32 37t29 33l-67 67q-71 78 -166 121
q-43 18 -92 18zM2196 430q88 0 138 55t50 141t-53 146q-53 59 -140 59q-82 0 -171 -67q-60 -45 -113 -107q-15 -9 -31 -32q33 -41 66 -72q66 -55 77 -64q89 -59 177 -59z" />
    <glyph glyph-name="soundcloud" unicode="&#xf037;" horiz-adv-x="2574" 
d="M115 508l-21 -260q0 -23 -17 -23t-22 56l-16 219l-2 24l2 25q0 5 16 317l2 33q-1 12 13 16t18 -6q10 -16 10 -53v-27q0 -137 15 -266zM311 986v-44q19 -344 19 -389t-19 -238v-24q0 -37 -10 -51q-4 -12 -19 -11q-24 3 -24 68l-16 256q0 53 5 139t8 162t7 129l2 39
q0 14 16 19q32 10 31 -55zM453 569l14 529v76q0 28 25 28h12q18 0 18 -35v-34q18 -434 21 -560v-30q0 -29 -4 -90l-13 -123v-29q0 -41 -7 -55t-23 -15q-31 0 -31 64v33l-10 125q-2 25 -2 84v32zM678 1179q0 9 2 12t5 10t15 11q31 10 39 -20q4 -37 5 -204t16 -355v-80
q-4 -86 -8 -127l-11 -158q0 -26 -10 -32q-10 -7 -22 -5q-29 0 -29 31q-4 20 -4 64l-12 209v34q2 59 4 189t5 184q3 53 3 96l2 97v44zM886 360q-7 102 -7 205q0 104 4 170v96q2 33 2 110t2 120q0 43 4 137l2 74q0 35 33 37q25 1 33 -13t8 -65v-74q0 -137 2 -209l8 -344
q0 -88 -5 -206q-5 -119 -9 -140q-5 -35 -31 -31q-26 3 -32 17t-14 116zM1098 393v971q0 48 45 61q49 11 90 23t92 12q285 0 454 -170t189 -391q70 27 110 27q42 0 98 -7t128 -57q135 -96 147 -274v-25q0 -168 -145 -270q-74 -51 -129 -59t-100 -9h-15q-35 2 -108 2h-361
q-123 2 -368 2l-56 -2q-53 -6 -65 29q-4 14 -8 41v47q2 16 2 49z" />
    <glyph glyph-name="imdb" unicode="&#xf038;" horiz-adv-x="2719" 
d="M264 1290v-999h-258v999h258zM600 903v-612h-225v999h336l63 -436h6l60 438h338v-999h-226v616h-10l-82 -616h-164l-90 610h-6zM1628 289h-340v999q12 4 17 4h223q123 0 165 -5t81 -23q96 -43 108 -142q8 -57 8 -123v-507q0 -111 -57 -158q-39 -33 -93 -39t-112 -6z
M1628 1057q0 66 -57 65l-21 -2v-661q29 4 41 6q29 2 35 55l2 25v512zM1985 291v999h249v-221q11 -4 25 10q54 47 110 47q190 0 193 -153q2 -55 2 -168v-82q-2 -84 -2 -252q0 -8 -10 -80q-6 -41 -49 -76t-93 -39h-49q-37 0 -59 16l-66 50q-12 -10 -12 -26t-12 -25h-227z
M2273 422q14 0 23 4q14 20 14 43v457q0 31 -9 40t-27 9t-28 -6q-11 -6 -12 -31q2 -80 2 -236t-2 -235q0 -27 17 -43q8 -2 22 -2z" />
    <glyph glyph-name="itunes" unicode="&#xf039;" horiz-adv-x="2400" 
d="M18 825q0 303 152 565t403 404q261 154 563 154t561 -150t411 -407q152 -258 153 -564q0 -229 -87 -434t-243 -361q-155 -156 -359 -242q-204 -87 -433 -87q-301 1 -559 151t-410 406q-152 262 -152 565zM111 825q0 -414 305 -723q307 -303 723 -303q207 0 394 80
t329 222q142 143 223 331q80 188 80 395t-80 393t-223 330q-303 299 -723 299q-207 0 -395 -80t-331 -222q-142 -143 -222 -329t-80 -393zM1425 285q-86 0 -143 42t-65 103q-4 23 -3 33q0 51 25 86q81 121 252 121q20 -2 68 -17v471q-313 -18 -615 -110v-670
q0 -119 -125 -184q-53 -29 -112 -29h-13q-104 0 -170 68q-43 45 -43 95t25 96q50 92 168 118q28 8 60 8t54 -6t27 -6q6 0 14 -4v837q0 29 23 35q40 8 160 46t256 59t213 25q76 4 114 9l39 2q15 0 39 3v-523l2 -491q0 -66 -35 -113q-76 -98 -198 -104h-17z" />
    <glyph glyph-name="instagram" unicode="&#xf040;" horiz-adv-x="2203" 
d="M2 1073h549q-55 -153 -55 -259t16 -165q47 -195 258 -332q129 -86 287 -86q201 0 360 125q209 155 209 420q0 141 -49 297h473v-938q0 -115 -57 -209q-84 -129 -238 -131h-1384q-145 4 -258 109t-113 254v18q6 152 6 305l-4 537v55zM1761 1843q109 0 189 -80t100 -215
v-342h-360l-41 -2q-10 -2 -31 -2q-139 0 -263 88t-290 88q-215 0 -381 -145q-31 -27 -55 -27q-66 -2 -199 -2h-100q-98 2 -295 2h-15q-4 2 -14 2q0 115 -4 172l-2 50q0 156 49 233q68 104 195 156q57 25 121 24h1396zM606 805q0 190 135 325q137 134 325 134t322 -134
t134 -324t-134 -324t-320 -134t-325 133q-137 134 -137 324zM1796 1487q0 49 1 89q1 57 -7 99q-8 41 -55 41h-258q-66 0 -66 -63v-260q0 -61 66 -62l125 -2q64 0 128 2t64 62q2 45 2 94z" />
    <glyph glyph-name="paypal" unicode="&#xf041;" horiz-adv-x="2056" 
d="M1294 1843q229 0 375 -151q121 -125 121 -322q0 -78 -16 -151q-53 -272 -267 -439q-203 -162 -475 -162h-373l-131 -602h-528l399 1827h895zM1999 1147q0 -70 -19 -152q-63 -279 -266 -439t-475 -161h-381l-123 -600h-528l24 94h441l129 605h377q268 0 477 162t262 440
q18 80 18 129q0 133 -43 219q107 -122 107 -297zM1104 1470h-258l-115 -501h260q98 6 183 78q80 74 110 172q0 18 6 22q2 10 2 31v22q-4 18 -8 52q-20 56 -67 90t-113 34z" />
    <glyph glyph-name="path" unicode="&#xf042;" horiz-adv-x="2068" 
d="M743 -156q0 -33 2 -49h-581q-127 37 -164 164v1718q37 127 164 166h1620q125 -37 166 -166v-98q-307 174 -650 174q-426 0 -684 -245t-258 -607q0 -174 46 -277q46 -102 128 -192q63 44 123 102t138 111q-94 84 -95 250q0 16 4 53q16 188 123 297q145 150 410 176
q61 4 88 4q207 0 373 -84q219 -115 254 -325v-180q-33 -178 -211 -258q-76 -35 -176 -46h-37q-74 0 -160 23v616q-61 10 -123 11l-149 -4q-53 0 -78 2q-2 -41 -2 -150v-96l2 -336l8 -299v-29q0 -209 -57 -237q-59 -35 -179 28q-12 8 -53 29q10 -41 10 -119v-24l-2 -78v-25z
M1593 244q41 0 80 6q178 16 277 86v-385q-53 -123 -166 -156h-516q66 61 90 207q6 43 10 135v47q0 68 -2 101q96 -41 227 -41z" />
    <glyph glyph-name="android" unicode="&#xf043;" horiz-adv-x="1869" 
d="M0 1044q0 70 49 109q29 23 47 25t31 2q86 0 121 -82q8 -29 8 -54v-12l-2 -90v-405q0 -39 -10 -66h-6q-4 -4 4 -4q-31 -66 -115 -66t-115 70q-10 27 -10 66v409l-2 86v12zM305 1149q0 10 2 10h1127v-647l4 -139q0 -121 -84 -156q-43 -16 -77 -16t-67 4q-4 -27 -4 -82v-84
l4 -100q0 -61 -39 -103t-83 -41q-134 0 -138 142q2 6 2 16l2 86v166h-168q-4 -27 -4 -82v-165q0 -108 -49 -138q-28 -21 -48 -21q-19 0 -21 -2q-50 0 -94 37t-44 111q2 4 2 14l2 80v166q-37 -4 -53 -4q-143 0 -170 98q-8 27 -8 68l6 145v637zM520 1843q8 0 12 -10l13 -25
q27 -53 76 -135q95 49 249 49t242 -53q4 6 18 30t20 35q6 10 21 36q14 26 23 38l8 25q4 10 15 10h4q2 -2 4 -2q23 -6 -4 -47q-11 -22 -24 -42t-23 -44t-27 -49q137 -84 199 -172q82 -111 90 -279h-1135q4 293 291 449q-10 23 -41 73t-37 64q-23 35 -4 47q2 2 10 2zM573 1489
q-14 -15 -14 -25t4 -22q23 -47 72 -29q18 6 21 33t-7 39q-20 18 -41 18t-35 -14zM1081 1456v-6q4 -43 47 -43q20 0 34 17q28 37 0 67q-11 12 -27 12l-15 -2q-39 -4 -39 -45zM1481 1040q0 75 47 112q29 24 49 26t44 2q23 0 57 -18t48 -57q14 -38 15 -147l-2 -94
q-2 -29 -2 -74t2 -73l2 -90q1 -115 -13 -149t-50 -56t-74 -23q-80 0 -111 72q-10 23 -10 64v411l-2 80v14z" />
    <glyph glyph-name="app_store" unicode="&#xf044;" horiz-adv-x="2349" 
d="M0 590v311q0 17 16 33t33 16h547l-236 -409h-311q-18 0 -34 14q-15 15 -15 35zM178 -139l27 207q0 16 15 24t30 0l137 -78q32 -32 6 -57l-176 -113q-16 -14 -28 -8q-11 7 -11 25zM268 187q0 20 6 32l623 1077q20 43 72 21l133 -76q43 -25 20 -74l-622 -1075
q-25 -43 -70 -22l-133 80q-29 17 -29 37zM1276 950l192 -409h-565l238 409h135zM1063 1808q0 35 17 35q42 0 239 -350q51 -92 103 -172t97 -163q44 -83 99 -183q110 -200 227 -434q31 -39 -2 -76q-25 -33 -59 -45t-51 -19q-51 -20 -103 72q-64 106 -132 262t-111 252
t-54 122q-12 26 -28 65t-33 73t-90 199q-74 178 -94 242t-25 108v12zM2214 950q23 0 36 -14t13 -35v-311q0 -49 -49 -49h-272q-6 8 -7 22q-4 15 -7 19t-9 16l-10 20q-16 25 -31 62q-34 54 -56 100t-48 94t-41 76h481zM1886 379q6 0 24 -8t25 -23l64 -121q23 -51 -19 -84
l-55 -32q-45 -23 -80 22l-73 125q-24 30 -13 41q4 18 31 35l78 41q12 4 18 4zM2025 102q119 0 119 -218q0 -62 -4 -89q-4 27 -85 63t-107 75t-29 52q-2 13 -2 35t16 41l17 17q45 25 75 24z" />
    <glyph glyph-name="tumblr" unicode="&#xf045;" horiz-adv-x="1318" 
d="M276 287v719h-276v288q154 52 228 112q165 132 212 437h283v-471h479v-366h-479v-527q0 -107 3 -159t48 -107q35 -35 47 -43q57 -37 150 -37q170 0 313 98v-325q-143 -61 -238 -86t-221 -25t-178 23q-24 6 -51 12q-98 33 -184 106t-103 140q-33 59 -33 211z" />
    <glyph glyph-name="viddler" unicode="&#xf046;" horiz-adv-x="2480" 
d="M664 -201v269q-90 -27 -168 -41t-154 -50q-43 0 -89 -17t-89 -17q-20 -19 -70 -27t-74 -29q-20 17 -20 60q0 231 2 346v346q164 -31 322 -80t321 -80q23 16 23 92v60q0 39 -33 39q-12 2 -53 2q-29 0 -25 20q-8 0 -12 -2h-15q-25 0 -47 12q-27 10 -51 7q-16 31 -72 39
q-287 217 -286 497q0 199 71 324l37 16v14q-2 2 -2 11q0 45 138 130t190 94q51 9 173 9t214 -47q18 -6 55 -14q8 -12 66 -59t78 -85q26 -14 68 -69t75 -74q71 33 143 126t105 126h14q12 0 44 19t50 16q2 20 41 28q43 4 49 27h304q31 -16 91 -47t105 -43q125 -131 213 -287
v-39q0 -29 19 -32q4 -29 4 -91q0 -213 -87 -355t-280 -226q-111 -41 -135 -43q-84 -8 -193 -8l-383 8l-10 -12q1 -24 17 -46t14 -49q14 -4 24 -47q4 -39 29 -41q0 -52 111 -332q49 -135 89 -224t50 -105q-39 -23 -117 -23l-440 2q-147 2 -444 2zM650 1370q-46 0 -70 -37
t-25 -81q0 -44 20 -76q35 -18 87 -18t92 36q29 86 -25 141q-33 35 -79 35zM1835 1163q57 0 98 47v17q2 5 2 31t-37 96l-22 2h-23q-120 0 -120 -111q4 -32 4 -35q41 -47 98 -47z" />
    <glyph glyph-name="foursquare" unicode="&#xf047;" 
d="M170 952q0 184 130 338q150 178 387 178q236 0 388 -170q35 -37 68 -92t53 -86q47 49 113 129q37 -33 145 -143t138 -138q30 -30 39 -30t19 10q306 322 484 514l338 357q14 14 29 24q0 -12 2 -16v-783q0 -29 -23 -45q-268 -213 -493 -397q-4 0 -13 -12q20 -25 66 -70
q-207 -202 -371 -369q-165 -167 -239 -241l-115 -115l-10 10q-4 2 -13 11l-565 565q-45 45 -96 47q-137 8 -262 109q-152 123 -187 301q-12 78 -12 114zM244 946q0 -88 32 -172q61 -150 201 -223q103 -53 217 -53q39 0 86 7t75 -19q27 -26 93 -86t126 -112t167 -157
q15 -12 27 -12q12 -1 42 23t124 102q96 78 216 175t238 195t258 207q184 152 279 230q23 16 22 43v559q0 20 -4 37q-424 -452 -1159 -1231l-90 149q-12 23 -40 67l-42 66q-8 16 -2 39q33 86 33 148t-10 116q-41 180 -191 275q-140 93 -326 67q-211 -35 -315 -221
q-47 -80 -57 -186v-33z" />
    <glyph glyph-name="phone" unicode="&#xf048;" 
d="M731 1843q70 -1 113 -23t63 -89q80 -258 127 -388q20 -55 -8 -104q-20 -29 -33 -39q-6 -8 -18 -20t-19 -21q-92 -104 -96 -147v-4q4 -35 18 -60q186 -345 517 -538q66 -39 123 -39t115 79t155 78q56 0 124 -24t138 -34q70 -11 174 -40q125 -33 131 -176v-18
q0 -172 -139 -300t-354 -141q-60 15 -148 31t-151 43q-791 346 -1157 1128q-86 180 -87 389q1 51 3 78q12 145 135 261t264 118h10z" />
    <glyph glyph-name="blogger" unicode="&#xf049;" 
d="M319 430v803q0 104 76 256q35 75 102 147t138 113q139 80 276 94h492q84 0 230 -77q145 -78 227 -188q122 -165 125 -331v-4q0 -104 49 -149q16 -16 51 -25h164q20 13 60 -22q40 -36 43 -55t3 -34v-565q-14 -117 -79 -261t-224 -243q-143 -82 -244 -90l-24 -2l-15 -2
h-876q-43 4 -133 33q-324 118 -416 444q-25 92 -25 158zM963 1311q-8 0 -21 -4q-47 -8 -70 -50q-18 -29 -18 -45v-59q0 -10 18 -38q30 -46 95 -46h381q12 -4 34 2q36 11 64 65q12 24 12 38v38q0 31 -24 54q-24 24 -35 28l-51 17h-385zM858 485v-71l-2 -6q0 -14 12 -32
t25 -24q14 -14 51 -24h770q47 0 74 29q28 29 39 65v47q0 6 -4 18q-16 27 -36 50t-79 34h-739l-25 -2q-53 -9 -82 -65q-4 -7 -4 -19z" />
    <glyph glyph-name="rss" unicode="&#xf050;" 
d="M319 67q0 119 74 199t197 78q122 -2 198 -81t76 -206v-4q0 -113 -85 -185t-199 -73q-114 0 -187 76q-74 76 -74 196zM319 750v399q281 0 539 -109t453 -315q342 -360 352 -930h-397q0 389 -279 672t-668 283zM319 1444v399h35q844 0 1436 -610q293 -303 429 -693
t136 -735v-10h-397v10q0 309 -121 621t-353 544q-232 230 -542 352t-623 122z" />
    <glyph glyph-name="twitter" unicode="&#xf051;" 
d="M475 592q54 0 119 18q-178 37 -297 178t-119 328v6q106 -59 236 -63q-106 73 -168 185t-64 251q0 139 72 254q190 -238 473 -382t592 -159q-14 68 -14 119q1 215 153 366t368 151t374 -165q174 37 327 127q-59 -188 -225 -286q145 16 295 82q-98 -154 -256 -269v-67
q0 -354 -175 -692t-491 -549q-351 -229 -793 -229t-804 231q61 -6 123 -7q356 0 643 222q-178 6 -307 106t-177 252q61 -8 115 -8z" />
    <glyph glyph-name="houzz" unicode="&#xf052;" 
d="M653 1618l682 405v-806l686 -390v793l-686 -403v-3l-682 -405v809zM1372 1112l535 -285l-535 -309v594zM1300 1112v-592l-544 287zM1339 420l682 405v-784l-682 -406v783l-686 -406v793l686 -387v2z" />
    <glyph glyph-name="app_net" unicode="&#xf053;" 
d="M1583 236q-16 -27 -29 -41q-127 -179 -267 -273t-277 -117q-266 -45 -494 117q-168 121 -256 340q-63 156 -82 332q-25 182 -8 371q20 285 130 493t296 311q162 84 338 72q380 -20 604 -512q39 -86 57 -134q19 -48 25 -58q12 37 56 147t94 284t75 230q20 43 66 43l125 2
q125 0 125 -2q74 -4 53 -78q-70 -238 -107 -356q-177 -534 -280 -735q-39 -80 -10 -154q112 -305 241 -340q27 -10 64 -3t55 36l12 25q29 55 97 59h153q72 -4 72 -76q-2 -123 -78 -233q-96 -147 -250 -181q-193 -43 -354 82q-128 96 -215 285l-27 53q-2 7 -4 11zM889 1466
q-76 0 -152 -34q-143 -63 -202 -228q-49 -131 -58 -330q-8 -343 90 -518q72 -125 210 -168q137 -44 249 14t202 162t191 298q12 25 4 49q-90 295 -138 414t-120 204q-110 137 -276 137z" />
    <glyph glyph-name="ebay" unicode="&#xf054;" 
d="M688 498q0 98 6 194v49h-520q10 -55 12 -59q39 -109 154 -123q84 -10 134 20t65 68q6 10 10 10h131q-14 -43 -18 -51q-35 -76 -114 -104q-169 -60 -321 -13q-154 53 -180 211q-20 115 16 209q51 123 195 162q70 14 167 10t167 -61q78 -59 96 -160q0 -14 6 -20v473h131
v-320q68 49 72 51q49 31 136 39t171 -30q137 -70 158 -213q6 -31 6 -66t-1 -39t-1 -6q25 33 39 47q43 42 111 56t243 18h80q6 39 -10 76t-53 51q-88 39 -179 4q-49 -16 -63 -74h-137q14 149 227 174q96 10 177 -10t120 -63l8 -4q-23 45 -31 57l13 2h125q16 0 24 -14
l213 -431q39 76 111 223t106 212q4 8 30 9t114 1q-3 -12 -167 -331q-163 -319 -229 -449q-6 -12 -20 -13h-119q-2 0 -6 1t-8 1q36 63 108 207q8 10 2 25q-227 414 -227 428q4 -78 4 -115v-244q0 -27 4 -84h-121q-2 27 -6 76q-4 -2 -11 -10q-61 -69 -167 -82
q-106 -11 -189 15t-116 100q-12 33 -12 80q-25 -59 -56 -99q-94 -102 -249 -102q-139 6 -224 98q-6 -48 -6 -78h-119q-12 0 -12 11zM1231 776q-6 57 -6 60q-19 76 -77 118t-136 37q-113 -6 -162 -106q-35 -68 -21 -153t76 -134t143 -38t123 56q60 60 60 160zM1841 764
q-143 -4 -207 -8t-98 -25q-53 -27 -42 -87t69 -79q47 -18 123 -8q76 11 117 67q42 56 38 140zM557 831v11l-2 12q-12 82 -80 119q-61 29 -135 19t-115 -53q-41 -45 -47 -108h379z" />
    <glyph glyph-name="bandcamp" unicode="&#xf055;" horiz-adv-x="2664" 
d="M0 1450h954v-463l8 4t9 4l2 2q117 139 311 124t297 -158q102 -143 94 -349t-119 -336q-111 -129 -303 -122q-146 8 -218 60q-21 15 -49 38t-40 31v-101h-192v1248l-13 6q-2 -4 -15 -18t-689 -1205q-6 -12 -37 -25v1260zM1479 637q-10 133 -64 217q-77 119 -227 113
t-207 -146q-76 -184 2 -358q68 -154 234 -149t223 157q17 50 26 100t13 66zM2550 520q24 0 54 1q32 1 50 1q-54 -257 -239 -332q-186 -72 -381 0q-152 59 -219 220q-63 147 -37 320q27 173 129 274q135 133 358 118q336 -17 391 -327q-125 0 -164 1t-47 23q-39 129 -174 146
q-178 18 -246 -111q-115 -215 0 -430q70 -131 236 -107q135 18 174 156q9 31 23 41t41 8t51 -2z" />
    <glyph glyph-name="facebook_like" unicode="&#xf056;" horiz-adv-x="2394" 
d="M2212 1096q90 0 138 -66t43 -145q-5 -80 -79 -152q-4 -2 -12 -10q66 -134 -51 -246q-10 -10 -6 -24q39 -139 -64 -236q-4 -2 -4 -16q29 -125 -48 -221t-204 -97h-913q-55 10 -107 62q-4 4 -8 6h-4v-33q2 -35 1 -44t-13 -26q-20 -32 -79 -32h-239h-405q-31 0 -57 24
t-29 56q-5 80 -31 408q-26 329 -35 456l-6 67v60q0 2 1 2t1 2q31 55 94 55q240 -2 719 -2q35 0 41 -18q10 12 33 37q146 158 297 467q8 10 4 24l-2 301q0 10 6 21q43 63 121 79q8 3 41 9h33q84 -14 116 -35q18 -8 29 -27q53 -88 96 -206t34 -222q-8 -102 -22 -153t-21 -82
t-11 -43h602zM2198 1004h-697v6l25 116q10 45 26 140l13 110q11 122 -71 299q-34 72 -38 74q-80 45 -158 -2q-10 -7 -9 -35t1 -122v-142q0 -26 -18 -58q-91 -163 -127 -229q-75 -121 -133 -197t-76 -94q-71 -56 -107 -73q-10 -6 -10 -19v-717q0 -12 12 -12h70q10 0 15 -4
q6 -4 24 -15t54 -32t77 -18h535l319 -3q83 0 146 91q35 53 14 98q-6 16 -33 43q-10 13 -7 27t15 18t29 12q47 31 65 84q27 68 -24 111q-35 31 8 52q99 48 91 134q-3 45 -32 78t7 47q38 12 66 47t29 80t-28 75t-73 30zM629 56q1 28 -19 47t-49 21t-47 -18t-18 -48t18 -47
t45 -20t49 18t21 47z" />
    <glyph glyph-name="trip_advisor" unicode="&#xf057;" horiz-adv-x="2533" 
d="M2515 1343q-6 -12 -12 -18q-72 -111 -105 -209q-6 -20 6 -39q125 -180 113 -393q-17 -262 -209 -432t-434 -161t-414 169l-74 62q-78 -119 -126 -193q-47 68 -134 199l-4 -4l-4 -2q-254 -289 -610 -213q-377 78 -485 469l-19 92v104q0 6 6 21q18 156 109 288q10 10 4 29
q-29 96 -109 217q-2 4 -10 8v6h373q20 0 37 11q289 180 663 215l117 12h127l12 -4q166 -14 201 -21q303 -47 551 -200q18 -10 217 -10t213 -3zM2250 1070q-142 144 -349 150t-359 -136q-152 -144 -156 -354t140 -358t355 -152t359 140t150 355t-140 355zM636 1223
q-208 1 -355 -145t-147 -353t146 -355t353 -148t354 146t150 353q-1 207 -147 355t-354 147zM664 1358q494 -63 600 -549q36 227 196 376t391 167q-581 229 -1187 6zM1887 1038q130 0 221 -91q92 -91 90 -222t-96 -221t-221 -87q-126 3 -216 94t-90 218t91 218t221 91z
M2089 729q0 84 -59 142q-60 59 -144 59t-143 -60t-59 -143q0 -84 58 -143q60 -58 144 -58t144 60t59 143zM626 1038q130 0 221 -91t91 -218t-90 -218t-217 -94t-221 88t-94 221t90 221t220 91zM829 729q-2 84 -61 143q-59 58 -143 58q-83 0 -143 -60t-59 -144q1 -83 61 -143
q60 -61 144 -59t142 62q59 60 59 143zM1816 802q30 30 72 28t73 -30q30 -30 29 -73t-32 -73t-74 -28q-43 0 -72 30t-28 73q2 43 32 73zM522 728q0 44 30 74t74 30t74 -32q30 -30 31 -73q0 -43 -31 -73q-32 -30 -74 -30t-73 30t-31 74z" />
    <glyph glyph-name="github" unicode="&#xf058;" horiz-adv-x="2363" 
d="M1397 287q195 51 225 63q268 100 301 422q25 252 -100 404q-16 16 -6 43q33 106 -9 245q-16 61 -61 44t-123 -51t-120 -52t-72 -10q-256 55 -512 0q-35 -8 -136 36q-101 45 -162 70t-79 -37q-35 -143 -6 -241q8 -35 -15 -62q-78 -88 -93 -236q-15 -147 28 -283t121 -200
q133 -111 319 -139l49 -8q-25 -66 -44 -113t-36 -53q-197 -70 -305 78q-47 63 -131 127q-53 39 -125 4q37 -41 49 -55t53 -52t58 -79q43 -121 132 -159t230 -30q6 0 56 8q0 -193 -2 -227t-29 -45q-27 -10 -64 2q-250 84 -442 276q-281 279 -337 667t132 736q117 210 305 358
q376 295 859 247q238 -25 448 -142q311 -174 473 -488t119 -669q-84 -709 -768 -981q-106 -41 -107 72v284q-3 154 -73 226z" />
    <glyph glyph-name="angies_list" unicode="&#xf059;" 
d="M616 399q-113 0 -167 17q-379 113 -437 463q-41 235 82 421t369 250q68 18 168 19q492 2 1405 2q215 0 389 -124t219 -335q66 -309 -143 -524q-135 -135 -320 -180q-31 -8 -98 -9h-815q-156 -297 -295 -557q-209 398 -231 440t-32 62q-9 20 -26 55h-68zM1110 641h915
q174 2 282 123q108 120 78 276t-167 234q-100 53 -223 53q-668 4 -1331 0q-129 0 -238 -63q-131 -74 -156 -234t76 -262q121 -125 301 -129q109 0 203 2q16 -45 36 -97t47 -119q26 -67 42 -108q49 119 135 324z" />
    <glyph glyph-name="spotify" unicode="&#xf060;" horiz-adv-x="2246" 
d="M8 836q0 301 148 556q147 256 399 406t554 154t563 -144t413 -405q152 -256 153 -555q2 -227 -82 -432q-168 -412 -570 -595q-198 -91 -426 -101t-446 78q-433 174 -616 600q-90 211 -90 438zM1835 944q45 4 75 34t30 82t-62 89q-299 165 -653 194q-305 38 -576 -4
q-137 -23 -225 -49q-41 -14 -60 -52q-18 -38 -6 -78t50 -60t77 -8q167 47 345 57q284 16 532 -37q236 -43 422 -149q8 -7 28 -13t23 -6zM956 977q-218 0 -467 -66q-57 -12 -60 -68t34 -83t84 -10q168 49 360 53q249 1 435 -55t311 -130q31 -20 65 -11t54 40q18 31 10 66
t-41 53q-102 57 -156 80q-293 127 -629 131zM950 614q-183 0 -418 -51q-31 -6 -47 -31q-16 -24 -9 -54t32 -44t53 -6q161 35 273 43q247 18 450 -41q127 -35 252 -108q27 -18 57 -9q45 9 51 57t-32 68q-129 68 -154 78q-236 102 -508 98z" />
    <glyph glyph-name="vk" unicode="&#xf061;" horiz-adv-x="2584" 
d="M2261 72v-2q-117 0 -131 -2q-141 -14 -262 122q-72 82 -170 175q-59 49 -88 42t-72 -69q-6 -10 -16 -49t-9 -68q-19 -111 -41 -133t-118 -16q-18 0 -107 -1t-166 17q-236 61 -409 227q-199 184 -371 488q-51 88 -281 538q-53 109 70 123q25 2 152 2l61 -2q61 -2 62 2
q147 25 202 -134t217 -390q35 -49 109 -119q45 -45 80 11t37 108t2 322q-2 111 -107 157q-42 17 -25 44q7 11 25 18q92 39 159 43t169 2q133 -3 170 -15q92 -16 98 -100q4 -41 4 -190l-8 -291q0 -8 10 -39q39 -131 138 -39q78 72 204 287q31 53 81 170t77 135t107 20h172
q172 -2 172 0q160 4 96 -149q-42 -102 -133 -223q-12 -16 -41 -56t-39 -51l-141 -184q-45 -66 -40 -112t48 -89q149 -149 211 -214q63 -66 125 -150q16 -23 24 -63t-14 -71t-70 -32h-223z" />
    <glyph glyph-name="reverb_nation" unicode="&#xf062;" horiz-adv-x="2363" 
d="M2361 1135l-733 -533l281 -858l-727 530l-736 -530l-2 -2l281 864l-727 527l-2 2h901l279 860l284 -860h901z" />
    <glyph glyph-name="disqus" unicode="&#xf063;" horiz-adv-x="2095" 
d="M1464 961q2 -15 10 -49t7 -56q2 -164 -112 -236t-308 -55q-10 182 -2 559q0 6 6 9q323 23 399 -172zM760 303l370 -8q357 0 523 194q78 88 113 214q36 125 10 267t-115 239q-129 143 -330 175q-92 15 -281 15l-290 -6q-6 -547 0 -1090zM174 355q0 3 -27 63
q-104 244 -81 522t161 495q139 217 369 363t520 162q446 25 795 -277q221 -193 319 -485q10 -35 30 -119t24 -92q-2 -35 3 -136t-2 -133t-14 -54q-55 -340 -305 -596q-197 -203 -444 -279q-147 -39 -193 -45q-475 -66 -878 258q-266 -41 -443 -59q0 14 19 51
q119 294 133 326t14 35z" />
    </font>
</defs>
</svg>
